<?xml version="1.0" standalone="no"?>
<!DOCTYPE svg PUBLIC "-//W3C//DTD SVG 1.1//EN" "http://www.w3.org/Graphics/SVG/1.1/DTD/svg11.dtd">
<svg xmlns="http://www.w3.org/2000/svg">
<metadata>Generated by Fontastic.me</metadata>
<defs>
<font id="media" horiz-adv-x="512">
<font-face font-family="media" units-per-em="512" ascent="480" descent="-32"/>
<missing-glyph horiz-adv-x="512" />

<glyph unicode="&#97;" d="M454 37l-396 0c-32 0-58 26-58 58l0 276c0 33 26 59 58 59l396 0c32 0 58-26 58-59l0-276c0-15-6-30-17-41-11-11-26-17-41-17z m-396 371c-20 0-37-16-37-37l0-276c0-20 17-36 37-36l396 0c20 0 37 16 37 36l0 276c0 21-17 37-37 37z m307-310l-292 0c-6 0-11 5-11 10l0 245c0 6 5 11 11 11l292 0c6 0 10-5 10-11l0-245c0-5-4-10-10-10z m-282 21l271 0 0 224-271 0z m372 114l-44 0c-6 0-10 5-10 11 0 6 4 10 10 10l44 0c5 0 10-4 10-10 0-6-5-11-10-11z m0-45l-44 0c-6 0-10 5-10 11 0 6 4 11 10 11l44 0c5 0 10-5 10-11 0-6-5-11-10-11z m0-45l-44 0c-6 0-10 5-10 11 0 6 4 11 10 11l44 0c5 0 10-5 10-11 0-6-5-11-10-11z m-26 151c-19 0-35 16-35 35 0 19 16 35 35 35 19 0 35-16 35-35 0-19-16-35-35-35z m0 49c-7 0-14-6-14-14 0-7 7-14 14-14 8 0 14 7 14 14 0 8-6 14-14 14z m-222 65c-2 0-5 1-7 3l-80 74c-4 4-5 10-1 15 4 4 11 4 15 0l74-67 76 67c4 4 11 4 15 0 4-5 3-12-1-16l-84-73c-2-2-4-3-7-3z m-96-399l-27 0c-6 0-11 5-11 11 0 5 5 10 11 10l27 0c6 0 11-5 11-10 0-6-5-11-11-11z m307 0l-27 0c-6 0-10 5-10 11 0 5 4 10 10 10l27 0c6 0 11-5 11-10 0-6-5-11-11-11z"/>
<glyph unicode="&#98;" d="M419 40l-326 0c-51 0-93 42-93 94l0 182c0 52 42 93 93 93l12 0 0 17c0 25 21 46 46 46l100 0c26 0 46-21 46-46l0-17 122 0c25 0 48-9 66-27 17-18 27-41 27-66l0-182c0-52-42-94-93-94z m-326 348c-39 0-72-32-72-72l0-182c0-40 33-72 72-72l326 0c39 0 72 32 72 72l0 182c0 19-8 37-21 51-14 14-32 21-51 21l-132 0c-6 0-11 5-11 11l0 27c0 13-11 24-25 24l-100 0c-13 0-24-11-24-24l0-27c0-6-5-11-11-11z m111-289c-69 0-125 56-125 126 0 69 56 125 125 125 70 0 126-56 126-125 0-70-56-126-126-126z m0 230c-57 0-104-47-104-104 0-58 47-105 104-105 58 0 105 47 105 105 0 57-47 104-105 104z m243-53l-78 0c-6 0-11 4-11 10l0 46c0 5 5 10 11 10l78 0c6 0 11-5 11-10l0-46c0-6-5-10-11-10z m-67 21l57 0 0 24-57 0z"/>
<glyph unicode="&#99;" d="M380 109l-305 0c-41 0-75 34-75 75l0 144c0 41 34 75 75 75l305 0c41 0 75-34 75-75l0-14 28 0c16 0 29-13 29-29l0-58c0-16-13-29-29-29l-28 0 0-14c0-41-34-75-75-75z m-305 273c-14 0-28-6-38-16-10-10-16-24-16-38l0-144c0-30 24-54 54-54l305 0c29 0 54 24 54 54l0 25c0 6 4 11 10 11l39 0c4 0 8 3 8 7l0 58c0 4-4 7-8 7l-39 0c-6 0-10 5-10 11l0 25c0 30-25 54-54 54z m152-234l-86 0c-6 0-11 4-11 10l0 196c0 6 5 10 11 10l86 0c6 0 11-4 11-10l0-196c0-6-5-10-11-10z m-75 21l64 0 0 174-64 0z m-11-21l-57 0c-22 0-39 17-39 38l0 140c0 21 17 38 39 38l57 0c6 0 11-4 11-10l0-196c0-6-5-10-11-10z m-57 195c-10 0-18-8-18-17l0-140c0-10 8-17 18-17l46 0 0 174z m229-195l-86 0c-6 0-11 4-11 10l0 196c0 6 5 10 11 10l86 0c6 0 10-4 10-10l0-196c0-6-4-10-10-10z m-75 21l64 0 0 174-64 0z"/>
<glyph unicode="&#100;" d="M427 0l-342 0c-47 0-85 38-85 85l0 342c0 47 38 85 85 85l342 0c47 0 85-38 85-85l0-342c0-47-38-85-85-85z m-342 491c-35 0-64-29-64-64l0-342c0-35 29-64 64-64l342 0c35 0 64 29 64 64l0 342c0 35-29 64-64 64z m355-377l-368 0c-6 0-11 5-11 11l0 262c0 6 5 11 11 11l368 0c6 0 11-5 11-11l0-262c0-6-5-11-11-11z m-357 21l346 0 0 241-346 0z m-19 321l27 0 0-21-27 0z m60 0l27 0 0-21-27 0z m59 0l27 0 0-21-27 0z m59 0l28 0 0-21-28 0z m60 0l27 0 0-21-27 0z m59 0l27 0 0-21-27 0z m60 0l27 0 0-21-27 0z m-357-379l27 0 0-21-27 0z m60 0l27 0 0-21-27 0z m59 0l27 0 0-21-27 0z m59 0l28 0 0-21-28 0z m60 0l27 0 0-21-27 0z m59 0l27 0 0-21-27 0z m60 0l27 0 0-21-27 0z"/>
<glyph unicode="&#101;" d="M256 0c-141 0-256 115-256 256 0 141 115 256 256 256 141 0 256-115 256-256 0-141-115-256-256-256z m0 491c-129 0-235-106-235-235 0-129 106-235 235-235 129 0 235 106 235 235 0 129-106 235-235 235z m0-443c-68 0-131 34-170 89-4 5-2 12 2 15 5 3 12 2 15-3 35-50 92-79 153-79 6 0 11-5 11-11 0-6-5-11-11-11z m163 307c-3 0-6 2-9 5-34 52-92 82-154 82-6 0-11 5-11 11 0 6 5 11 11 11 69 0 133-35 172-92 3-5 2-11-3-15-2-1-4-2-6-2z m-163-183c-46 0-84 38-84 84 0 46 38 84 84 84 46 0 84-38 84-84 0-46-38-84-84-84z m0 147c-34 0-63-29-63-63 0-34 29-63 63-63 34 0 63 29 63 63 0 34-29 63-63 63z"/>
<glyph unicode="&#102;" d="M380 109l-305 0c-41 0-75 34-75 75l0 144c0 41 34 75 75 75l305 0c41 0 75-34 75-75l0-14 28 0c16 0 29-13 29-29l0-58c0-16-13-29-29-29l-28 0 0-14c0-41-34-75-75-75z m-305 273c-14 0-28-6-38-16-10-10-16-24-16-38l0-144c0-30 24-54 54-54l305 0c29 0 54 24 54 54l0 25c0 6 4 11 10 11l39 0c4 0 8 3 8 7l0 58c0 4-4 7-8 7l-39 0c-6 0-10 5-10 11l0 25c0 30-25 54-54 54z m152-234l-86 0c-6 0-11 4-11 10l0 196c0 6 5 10 11 10l86 0c6 0 11-4 11-10l0-196c0-6-5-10-11-10z m-75 21l64 0 0 174-64 0z m-11-21l-57 0c-22 0-39 17-39 38l0 140c0 21 17 38 39 38l57 0c6 0 11-4 11-10l0-196c0-6-5-10-11-10z m-57 195c-10 0-18-8-18-17l0-140c0-10 8-17 18-17l46 0 0 174z"/>
<glyph unicode="&#103;" d="M256 0c-141 0-256 115-256 256 0 141 115 256 256 256 141 0 256-115 256-256 0-141-115-256-256-256z m0 491c-129 0-235-106-235-235 0-129 106-235 235-235 129 0 235 106 235 235 0 129-106 235-235 235z m-53-390c-25 0-41 20-41 51l0 208c0 31 16 51 41 51 10 0 21-4 32-12l150-97c18-12 28-28 28-46 0-18-10-34-28-46l-150-97c-11-8-22-12-32-12z m0 288c-17 0-19-20-19-29l0-208c0-9 2-29 19-29 6 0 13 2 21 7l149 98c12 8 18 18 18 28 0 10-6 20-18 28l-149 98c-8 5-15 7-21 7z"/>
<glyph unicode="&#104;" d="M361 0l-210 0c-42 0-77 35-77 77l0 358c0 42 35 77 77 77l210 0c42 0 77-35 77-77l0-358c0-42-35-77-77-77z m-210 491c-31 0-56-25-56-56l0-358c0-31 25-56 56-56l210 0c31 0 56 25 56 56l0 358c0 31-25 56-56 56z m221-189l-232 0c-6 0-11 4-11 10l0 103c0 5 5 10 11 10l232 0c6 0 11-5 11-10l0-103c0-6-5-10-11-10z m-221 21l210 0 0 81-210 0z m22-102l-28 0c-6 0-11 4-11 10 0 6 5 11 11 11l28 0c6 0 10-5 10-11 0-6-4-10-10-10z m97 0l-28 0c-6 0-11 4-11 10 0 6 5 11 11 11l28 0c6 0 11-5 11-11 0-6-5-10-11-10z m97 0l-28 0c-6 0-10 4-10 10 0 6 4 11 10 11l28 0c6 0 11-5 11-11 0-6-5-10-11-10z m-194-77l-28 0c-6 0-11 5-11 11 0 6 5 10 11 10l28 0c6 0 10-4 10-10 0-6-4-11-10-11z m97 0l-28 0c-6 0-11 5-11 11 0 6 5 10 11 10l28 0c6 0 11-4 11-10 0-6-5-11-11-11z m97 0l-28 0c-6 0-10 5-10 11 0 6 4 10 10 10l28 0c6 0 11-4 11-10 0-6-5-11-11-11z m-194-77l-28 0c-6 0-11 5-11 11 0 6 5 11 11 11l28 0c6 0 10-5 10-11 0-6-4-11-10-11z m97 0l-28 0c-6 0-11 5-11 11 0 6 5 11 11 11l28 0c6 0 11-5 11-11 0-6-5-11-11-11z m97 0l-28 0c-6 0-10 5-10 11 0 6 4 11 10 11l28 0c6 0 11-5 11-11 0-6-5-11-11-11z"/>
<glyph unicode="&#105;" d="M256 134c-62 0-112 52-112 115l0 148c0 63 50 115 112 115 62 0 112-52 112-115l0-148c0-63-50-115-112-115z m0 357c-50 0-90-42-90-94l0-148c0-51 40-94 90-94 50 0 90 43 90 94l0 148c0 52-40 94-90 94z m0-410c-90 0-163 76-163 169l0 80c0 6 4 11 10 11 6 0 11-5 11-11l0-80c0-82 64-148 142-148 78 0 142 66 142 148l0 80c0 6 5 11 11 11 6 0 10-5 10-11l0-80c0-93-73-169-163-169z m0-81c-6 0-11 5-11 11l0 81c0 6 5 10 11 10 6 0 11-4 11-10l0-81c0-6-5-11-11-11z m67 0l-134 0c-6 0-11 5-11 11 0 6 5 10 11 10l134 0c6 0 11-4 11-10 0-6-5-11-11-11z m-67 373c-6 0-11 4-11 10l0 118c0 6 5 11 11 11 6 0 11-5 11-11l0-118c0-6-5-10-11-10z m-48 0c-6 0-10 4-10 10l0 102c0 6 4 11 10 11 6 0 11-5 11-11l0-102c0-6-5-10-11-10z m95 0c-6 0-11 4-11 10l0 102c0 6 5 11 11 11 5 0 10-5 10-11l0-102c0-6-5-10-10-10z"/>
<glyph unicode="&#106;" d="M256 0c-141 0-256 115-256 256 0 141 115 256 256 256 141 0 256-115 256-256 0-141-115-256-256-256z m0 491c-129 0-235-106-235-235 0-129 106-235 235-235 129 0 235 106 235 235 0 129-106 235-235 235z m11-390c-16 0-33 14-33 51l0 15-61-54c-9-7-18-12-27-12-16 0-33 14-33 51l0 208c0 37 17 51 33 51 9 0 18-5 27-12l61-54 0 15c0 37 17 51 33 51 9 0 18-5 27-12l111-98c14-12 21-28 21-45 0-17-7-33-21-45l-111-98c-9-7-18-12-27-12z m-22 100c1 0 3 0 4 0 4-2 7-6 7-10l0-39c0-17 4-29 11-29 3 0 8 2 13 7l111 97c9 8 14 18 14 29 0 11-5 21-14 29l-111 97c-5 5-10 7-13 7-7 0-11-12-11-29l0-39c0-4-3-8-7-10-4-1-8-1-11 2l-79 69c-5 5-10 7-13 7-7 0-11-12-11-29l0-208c0-17 4-29 11-29 3 0 8 2 13 7l79 69c2 2 4 2 7 2z"/>
<glyph unicode="&#107;" d="M380 109l-305 0c-41 0-75 34-75 75l0 144c0 41 34 75 75 75l305 0c41 0 75-34 75-75l0-14 28 0c16 0 29-13 29-29l0-58c0-16-13-29-29-29l-28 0 0-14c0-41-34-75-75-75z m-305 273c-14 0-28-6-38-16-10-10-16-24-16-38l0-144c0-30 24-54 54-54l305 0c29 0 54 24 54 54l0 25c0 6 4 11 10 11l39 0c4 0 8 3 8 7l0 58c0 4-4 7-8 7l-39 0c-6 0-10 5-10 11l0 25c0 30-25 54-54 54z m66-234l-57 0c-22 0-39 17-39 38l0 140c0 21 17 38 39 38l57 0c6 0 11-4 11-10l0-196c0-6-5-10-11-10z m-57 195c-10 0-18-8-18-17l0-140c0-10 8-17 18-17l46 0 0 174z"/>
<glyph unicode="&#108;" d="M256 0c-141 0-256 115-256 256 0 141 115 256 256 256 141 0 256-115 256-256 0-12-1-23-2-35-1-6-7-10-12-9-6 1-10 6-10 12 2 10 3 21 3 32 0 129-106 235-235 235-129 0-235-106-235-235 0-129 106-235 235-235 9 0 19 1 29 2 6 1 11-3 12-9 0-6-4-11-10-12-10-1-21-2-31-2z m0 48c-68 0-131 34-170 89-4 5-2 12 2 15 5 3 12 2 15-3 35-50 92-79 153-79 6 0 11-5 11-11 0-6-5-11-11-11z m163 307c-3 0-6 2-9 5-34 52-92 82-154 82-6 0-11 5-11 11 0 6 5 11 11 11 69 0 133-35 172-92 3-5 2-11-3-15-2-1-4-2-6-2z m-163-183c-46 0-84 38-84 84 0 46 38 84 84 84 46 0 84-38 84-84 0-46-38-84-84-84z m0 147c-34 0-63-29-63-63 0-34 29-63 63-63 34 0 63 29 63 63 0 34-29 63-63 63z m95-312c-39 0-70 22-70 51 0 29 31 51 70 51 39 0 70-22 70-51 0-29-31-51-70-51z m0 81c-26 0-49-14-49-30 0-16 23-30 49-30 26 0 49 14 49 30 0 16-23 30-49 30z m59-41c-6 0-10 5-10 11l0 211c0 5 3 9 7 10 5 2 9 0 12-4 0 0 34-47 59-70 37-35 44-71 20-106-4-5-10-7-15-3-5 3-6 10-3 15 18 26 13 51-17 78-14 13-30 32-42 48l0-179c0-6-5-11-11-11z"/>
<glyph unicode="&#109;" d="M250 6c-138 0-250 113-250 250 0 138 112 250 250 250 138 0 250-112 250-250 0-40-10-80-29-115-2-6-9-8-14-5-5 3-7 9-4 14 17 33 26 70 26 106 0 126-103 229-229 229-126 0-229-103-229-229 0-126 103-228 229-228 30 0 60 6 88 17 5 2 11 0 14-6 2-5-1-11-6-13-31-13-63-20-96-20z m0 48c-66 0-128 32-166 86-4 5-3 12 2 15 5 3 12 2 15-3 34-48 90-77 149-77 6 0 11-5 11-11 0-6-5-10-11-10z m159 299c-3 0-7 2-9 5-33 50-90 80-150 80-6 0-11 5-11 10 0 6 5 11 11 11 67 0 130-33 168-89 3-5 2-12-3-15-2-1-4-2-6-2z m-159-179c-45 0-82 37-82 82 0 46 37 82 82 82 45 0 82-36 82-82 0-45-37-82-82-82z m0 143c-34 0-61-27-61-61 0-33 27-60 61-60 33 0 61 27 61 60 0 34-28 61-61 61z m179-311c-4 0-9 0-13 0-6 1-10 6-10 12 1 6 6 10 12 10 42-5 48 16 55 55 2 11 4 22 7 32-3-2-6-6-10-11-2-3-7-5-12-3-4 1-7 5-7 10 0 29-11 43-23 60-7 10-14 21-20 35-3-3-5-6-8-9-2-3-5-6-7-8-1-2-3-3-4-5-10-10-24-25-20-52 1-6-3-11-9-12-5-1-11 3-12 8-1 3-3 6-5 9 0-10-1-20-2-30-2-30-4-56 21-77 5-4 5-10 1-15-3-4-10-5-15-1-33 27-30 62-28 95 1 16 2 32 0 47-1 5 1 9 4 11 4 3 8 3 12 0l4-2c3-2 6-4 9-6 5 19 17 32 24 40 1 1 3 3 4 4 2 3 5 5 7 8 10 11 17 18 17 31 0 6 5 11 10 11 0 0 1 0 1 0 5 0 10-4 10-10 1-28 12-43 24-59 9-14 19-28 24-50 8 6 19 9 33 7 4-1 7-4 9-8 1-3 0-8-3-10-9-9-12-26-15-44-6-31-13-73-65-73z"/>
<glyph unicode="&#110;" d="M380 109l-305 0c-41 0-75 34-75 75l0 144c0 41 34 75 75 75l305 0c41 0 75-34 75-75l0-14 28 0c16 0 29-13 29-29l0-58c0-16-13-29-29-29l-28 0 0-14c0-41-34-75-75-75z m-305 273c-14 0-28-6-38-16-10-10-16-24-16-38l0-144c0-30 24-54 54-54l305 0c29 0 54 24 54 54l0 25c0 6 4 11 10 11l39 0c4 0 8 3 8 7l0 58c0 4-4 7-8 7l-39 0c-6 0-10 5-10 11l0 25c0 30-25 54-54 54z"/>
<glyph unicode="&#111;" d="M256 0c-141 0-256 115-256 256 0 141 115 256 256 256 141 0 256-115 256-256 0-141-115-256-256-256z m0 491c-129 0-235-106-235-235 0-129 106-235 235-235 129 0 235 106 235 235 0 129-106 235-235 235z m68-332l-25 0c-17 0-31 14-31 32l0 130c0 18 14 32 31 32l25 0c17 0 32-14 32-32l0-130c0-18-15-32-32-32z m-25 172c-5 0-10-4-10-10l0-130c0-6 5-11 10-11l25 0c6 0 10 5 10 11l0 130c0 6-4 10-10 10z m-86-172l-25 0c-17 0-32 14-32 32l0 130c0 18 15 32 32 32l25 0c17 0 31-14 31-32l0-130c0-18-14-32-31-32z m-25 172c-6 0-10-4-10-10l0-130c0-6 4-11 10-11l25 0c5 0 10 5 10 11l0 130c0 6-5 10-10 10z"/>
<glyph unicode="&#112;" d="M132 126l-43 0c-49 0-89 41-89 91l0 107c0 50 40 91 89 91l334 0c49 0 89-41 89-91l0-107c0-50-40-91-89-91l-43 0c-6 0-11 5-11 10 0 6 5 11 11 11l43 0c38 0 68 31 68 70l0 107c0 38-30 70-68 70l-334 0c-38 0-68-32-68-70l0-107c0-39 30-70 68-70l43 0c6 0 11-5 11-11 0-5-5-10-11-10z m255 268l-268 0c-6 0-10 4-10 10l0 97c0 6 4 11 10 11l268 0c6 0 11-5 11-11l0-97c0-6-5-10-11-10z m-257 21l246 0 0 76-246 0z m290-415c0 0 0 0 0 0l-328 0c-4 0-7 2-9 4-2 3-2 7-1 10l55 174c2 5 6 8 11 8l216 0c5 0 9-3 11-8l55-172c1-2 1-3 1-5 0-6-5-11-11-11z m-314 21l300 0-49 153-202 0z m218 421l-141 0c-6 0-11 5-11 11 0 6 5 10 11 10l141 0c6 0 10-4 10-10 0-6-4-11-10-11z m0-316l-141 0c-6 0-11 5-11 10 0 6 5 11 11 11l141 0c6 0 10-5 10-11 0-5-4-10-10-10z m15-58l-171 0c-6 0-11 5-11 11 0 6 5 11 11 11l171 0c6 0 10-5 10-11 0-6-4-11-10-11z m69 120c-6 0-11 5-11 11l0 48-282 0 0-48c0-6-5-11-11-11-5 0-10 5-10 11l0 58c0 6 5 11 10 11l304 0c5 0 10-5 10-11l0-58c0-6-5-11-10-11z m-269 138l-47 0c-6 0-11 5-11 11 0 6 5 11 11 11l47 0c6 0 11-5 11-11 0-6-5-11-11-11z"/>
<glyph unicode="&#113;" d="M435 32l-358 0c-42 0-77 35-77 77l0 203c0 43 35 77 77 77l358 0c42 0 77-34 77-77l0-203c0-42-35-77-77-77z m-358 336c-31 0-56-25-56-56l0-203c0-30 25-55 56-55l358 0c31 0 56 25 56 55l0 203c0 31-25 56-56 56z m363-143l-368 0c-6 0-11 5-11 11l0 77c0 5 5 10 11 10l368 0c6 0 11-5 11-10l0-77c0-6-5-11-11-11z m-358 22l348 0 0 55-348 0z m320-155c-26 0-47 21-47 47 0 26 22 47 47 47 26 0 47-21 47-47 0-26-21-47-47-47z m0 72c-14 0-25-11-25-25 0-14 11-26 25-26 15 0 26 12 26 26 0 14-11 25-26 25z m-146-72c-26 0-47 21-47 47 0 26 21 47 47 47 26 0 47-21 47-47 0-26-21-47-47-47z m0 72c-14 0-26-11-26-25 0-14 12-26 26-26 14 0 26 12 26 26 0 14-12 25-26 25z m126 204c-1 0-2 0-3 0l-293 91c-6 2-9 8-7 13 1 6 7 9 13 7l293-90c6-2 9-8 7-14-1-4-5-7-10-7z"/>
<glyph unicode="&#114;" d="M256 0c-141 0-256 115-256 256 0 141 115 256 256 256 141 0 256-115 256-256 0-141-115-256-256-256z m0 491c-129 0-235-106-235-235 0-129 106-235 235-235 129 0 235 106 235 235 0 129-106 235-235 235z m110-390c-9 0-18 5-27 12l-61 54 0-15c0-14-3-26-8-35-5-10-14-16-25-16-9 0-18 5-27 12l-111 98c-14 12-21 28-21 45 0 17 7 33 21 45l111 98c9 7 18 12 27 12 16 0 33-14 33-51l0-15 61 54c9 7 18 12 27 12 16 0 33-14 33-51l0-208c0-37-17-51-33-51z m-99 100c3 0 5 0 7-2l79-69c5-5 10-7 13-7 7 0 11 12 11 29l0 208c0 17-4 29-11 29-3 0-8-2-13-7l-79-69c-3-3-7-3-11-2-4 2-7 6-7 10l0 39c0 17-4 29-11 29-3 0-8-2-13-7l-111-97c-9-8-14-18-14-29 0-11 5-21 14-29l111-98c5-4 10-6 13-6 1 0 4 0 7 5 3 5 4 14 4 24l0 39c0 4 3 8 7 10 1 0 3 0 4 0z"/>
<glyph unicode="&#115;" d="M427 42l-342 0c-47 0-85 38-85 84l0 260c0 46 38 84 85 84l342 0c47 0 85-38 85-84l0-260c0-46-38-84-85-84z m-342 407c-35 0-64-28-64-63l0-260c0-35 29-63 64-63l342 0c35 0 64 28 64 63l0 260c0 35-29 63-64 63z m416-313c-3 0-6 2-8 4l-93 114-104-100c-2-2-5-3-8-3-3 0-6 2-8 4l-113 146-149-147c-4-4-11-4-15 0-4 5-4 11 0 15l158 156c2 2 5 3 8 3 3-1 6-2 8-4l113-146 104 99c2 2 5 3 8 3 3 0 5-2 7-4l101-122c3-5 3-12-2-15-2-2-4-3-7-3z"/>
<glyph unicode="&#116;" d="M232 24c-128 0-232 104-232 232 0 128 104 232 232 232 128 0 232-104 232-232 0-13-1-25-3-38-1-6-6-10-12-9-6 1-10 7-9 12 2 12 3 23 3 35 0 116-94 211-211 211-116 0-211-95-211-211 0-116 95-211 211-211 43 0 84 13 120 37 5 4 11 2 15-3 3-4 2-11-3-14-39-27-84-41-132-41z m0 43c-61 0-119 31-154 81-4 5-3 11 2 15 5 3 12 2 15-3 31-45 83-71 137-71 6 0 11-5 11-11 0-6-5-11-11-11z m148 278c-4 0-7 1-9 4-31 47-83 74-139 74-6 0-10 5-10 11 0 6 4 11 10 11 63 0 121-32 157-84 3-4 2-11-3-14-2-2-4-2-6-2z m-148-166c-42 0-77 35-77 77 0 42 35 77 77 77 43 0 77-35 77-77 0-42-34-77-77-77z m0 132c-30 0-55-24-55-55 0-31 25-55 55-55 31 0 56 24 56 55 0 31-25 55-56 55z m182-269c-54 0-98 44-98 98 0 55 44 99 98 99 54 0 98-44 98-99 0-54-44-98-98-98z m0 175c-42 0-77-34-77-77 0-42 35-76 77-76 42 0 77 34 77 76 0 43-35 77-77 77z m34-87l-68 0c-6 0-11 5-11 10 0 6 5 11 11 11l68 0c6 0 10-5 10-11 0-5-4-10-10-10z"/>
<glyph unicode="&#117;" d="M232 24c-128 0-232 104-232 232 0 128 104 232 232 232 128 0 232-104 232-232 0-13-1-25-3-38-1-6-6-10-12-9-6 1-10 7-9 12 2 12 3 23 3 35 0 116-94 211-211 211-116 0-211-95-211-211 0-116 95-211 211-211 43 0 84 13 120 37 5 4 11 2 15-3 3-4 2-11-3-14-39-27-84-41-132-41z m0 43c-61 0-119 31-154 81-4 5-3 11 2 15 5 3 12 2 15-3 31-45 83-71 137-71 6 0 11-5 11-11 0-6-5-11-11-11z m148 278c-4 0-7 1-9 4-31 47-83 74-139 74-6 0-10 5-10 11 0 6 4 11 10 11 63 0 121-32 157-84 3-4 2-11-3-14-2-2-4-2-6-2z m-148-166c-42 0-77 35-77 77 0 42 35 77 77 77 43 0 77-35 77-77 0-42-34-77-77-77z m0 132c-30 0-55-24-55-55 0-31 25-55 55-55 31 0 56 24 56 55 0 31-25 55-56 55z m182-269c-54 0-98 44-98 98 0 55 44 99 98 99 54 0 98-44 98-99 0-54-44-98-98-98z m0 175c-42 0-77-34-77-77 0-42 35-76 77-76 42 0 77 34 77 76 0 43-35 77-77 77z m24-111c-3 0-6 1-8 3l-48 48c-4 4-4 11 0 15 5 4 11 4 16 0l47-48c5-4 5-11 0-15-2-2-4-3-7-3z m-48 0c-3 0-5 1-8 3-4 4-4 11 0 15l48 48c4 4 11 4 15 0 5-4 5-11 0-15l-47-48c-3-2-5-3-8-3z"/>
<glyph unicode="&#118;" d="M243 281c-28 0-51 26-51 58l0 115c0 32 23 58 51 58l181 0c3 0 6-1 8-3 2-2 3-5 3-8l0-209c0-6-5-11-11-11z m170 210l-170 0c-17 0-30-17-30-37l0-115c0-20 13-36 30-36l170 0z m88-162l-77 0c-6 0-11 4-11 10l0 115c0 6 5 11 11 11l77 0c6 0 11-5 11-11l0-115c0-6-5-10-11-10z m-66 21l56 0 0 93-56 0z m-134-157l-196 0c-58 0-105 48-105 107 0 59 47 107 105 107l97 0c6 0 11-5 11-10 0-6-5-11-11-11l-97 0c-46 0-84-39-84-86 0-47 38-86 84-86l196 0c6 0 11-4 11-10 0-6-5-11-11-11z m18-193l-196 0c-6 0-10 5-10 11 0 6 4 10 10 10l196 0c47 0 84 39 84 86 0 47-37 86-84 86l-97 0c-6 0-11 5-11 11 0 6 5 10 11 10l97 0c58 0 105-48 105-107 0-59-47-107-105-107z"/>
<glyph unicode="&#119;" d="M256 0c-141 0-256 115-256 256 0 141 115 256 256 256 141 0 256-115 256-256 0-141-115-256-256-256z m0 491c-129 0-235-106-235-235 0-129 106-235 235-235 129 0 235 106 235 235 0 129-106 235-235 235z m65-332l-130 0c-18 0-32 14-32 32l0 130c0 18 14 32 32 32l130 0c18 0 32-14 32-32l0-130c0-18-14-32-32-32z m-130 172c-6 0-10-4-10-10l0-130c0-6 4-11 10-11l130 0c6 0 10 5 10 11l0 130c0 6-4 10-10 10z"/>
<glyph unicode="&#120;" d="M434 211l-356 0c-6 0-10 4-11 9 0 3 0 4 0 6l0 219c0 24 17 43 38 43l302 0c21 0 38-19 38-43l0-219c0-2 0-4 0-5-1-6-5-10-11-10z m-346 21l336 0 0 213c0 12-8 22-17 22l-302 0c-9 0-17-10-17-22z m218-151l-100 0c-6 0-11 5-11 11 0 6 5 11 11 11l100 0c6 0 11-5 11-11 0-6-5-11-11-11z m195-57l-490 0c-6 0-11 4-11 10l0 41c0 2 0 3 1 5l67 146c2 4 5 6 10 6l356 0c5 0 8-2 10-6l67-146c1-2 1-3 1-5l0-41c0-6-5-10-11-10z m-480 21l470 0 0 28-63 138-344 0-63-138z"/>
<glyph unicode="&#121;" d="M462 0l-412 0c-27 0-50 20-50 45l0 222c0 25 23 45 50 45l412 0c27 0 50-20 50-45l0-222c0-25-23-45-50-45z m-412 291c-15 0-29-11-29-24l0-222c0-13 14-24 29-24l412 0c15 0 29 11 29 24l0 222c0 13-14 24-29 24z m305 97l-160 0c-6 0-11 5-11 11l0 102c0 6 5 11 11 11l160 0c6 0 11-5 11-11l0-102c0-6-5-11-11-11z m-150 22l140 0 0 81-140 0z m70-119c-6 0-11 4-11 10l0 98c0 6 5 11 11 11 6 0 11-5 11-11l0-98c0-6-5-10-11-10z m-19-263c-70 0-128 57-128 128 0 70 58 128 128 128 70 0 128-58 128-128 0-71-58-128-128-128z m0 234c-59 0-106-47-106-106 0-59 47-107 106-107 59 0 106 48 106 107 0 59-47 106-106 106z m0-175c-38 0-69 31-69 69 0 38 31 69 69 69 38 0 69-31 69-69 0-38-31-69-69-69z m0 117c-26 0-48-22-48-48 0-26 22-48 48-48 26 0 48 22 48 48 0 26-22 48-48 48z m196 40l-27 0c-6 0-11 5-11 11 0 6 5 10 11 10l27 0c6 0 10-4 10-10 0-6-4-11-10-11z m-313 82l-66 0c-6 0-11 5-11 10 0 6 5 11 11 11l66 0c6 0 11-5 11-11 0-5-5-10-11-10z"/>
<glyph unicode="&#122;" d="M256 0c-141 0-256 115-256 256 0 141 115 256 256 256 141 0 256-115 256-256 0-141-115-256-256-256z m0 491c-129 0-235-106-235-235 0-129 106-235 235-235 129 0 235 106 235 235 0 129-106 235-235 235z m0-391c-86 0-156 70-156 156 0 62 37 118 94 143 5 2 12 0 14-6 2-5 0-11-5-14-50-21-81-69-81-123 0-74 60-134 134-134 74 0 134 60 134 134 0 53-31 101-79 123-6 2-8 8-6 14 3 5 9 7 15 5 56-25 92-81 92-142 0-86-70-156-156-156z m0 228c-6 0-11 5-11 11l0 97c0 6 5 11 11 11 6 0 11-5 11-11l0-97c0-6-5-11-11-11z"/>
<glyph unicode="&#65;" d="M11 0c-6 0-11 5-11 11l0 73c0 6 5 11 11 11 6 0 10-5 10-11l0-73c0-6-4-11-10-11z m98 0c-6 0-11 5-11 11l0 232c0 6 5 11 11 11 6 0 10-5 10-11l0-232c0-6-4-11-10-11z m98 0c-6 0-11 5-11 11l0 490c0 6 5 11 11 11 6 0 11-5 11-11l0-490c0-6-5-11-11-11z m98 0c-6 0-11 5-11 11l0 232c0 6 5 11 11 11 6 0 11-5 11-11l0-232c0-6-5-11-11-11z m98 0c-6 0-10 5-10 11l0 415c0 6 4 11 10 11 6 0 11-5 11-11l0-415c0-6-5-11-11-11z m98 0c-6 0-10 5-10 11l0 314c0 6 4 10 10 10 6 0 11-4 11-10l0-314c0-6-5-11-11-11z"/>
<glyph unicode="&#66;" d="M448 130l-68 0c-6 0-11 5-11 10 0 6 5 11 11 11l68 0c6 0 10-5 10-11 0-5-4-10-10-10z m-34-34c-6 0-11 5-11 11l0 67c0 6 5 11 11 11 6 0 11-5 11-11l0-67c0-6-5-11-11-11z m-182-72c-128 0-232 104-232 232 0 128 104 232 232 232 128 0 232-104 232-232 0-13-1-26-3-38-1-6-6-10-12-9-6 1-10 7-9 12 2 12 3 23 3 35 0 116-94 211-211 211-116 0-211-95-211-211 0-116 95-211 211-211 43 0 84 13 120 37 5 4 11 2 15-3 3-4 2-11-3-14-39-27-84-41-132-41z m0 43c-61 0-119 31-154 81-4 5-3 11 2 15 5 3 12 2 15-3 31-45 83-71 137-71 6 0 11-5 11-11 0-6-5-11-11-11z m148 278c-4 0-7 1-9 4-31 47-83 74-139 74-6 0-10 5-10 11 0 6 4 11 10 11 63 0 121-32 157-84 3-4 2-11-3-14-2-2-4-2-6-2z m-148-166c-42 0-77 35-77 77 0 42 35 77 77 77 43 0 77-35 77-77 0-42-34-77-77-77z m0 132c-30 0-55-24-55-55 0-31 25-55 55-55 31 0 56 24 56 55 0 31-25 55-56 55z m182-269c-54 0-98 44-98 98 0 55 44 99 98 99 54 0 98-44 98-99 0-54-44-98-98-98z m0 175c-42 0-77-34-77-77 0-42 35-76 77-76 42 0 77 34 77 76 0 43-35 77-77 77z"/>
<glyph unicode="&#67;" d="M232 24c-128 0-232 104-232 232 0 128 104 232 232 232 128 0 232-104 232-232 0-13-1-26-3-38-1-6-6-10-12-9-6 1-10 7-9 12 2 12 3 23 3 35 0 116-94 211-211 211-116 0-211-95-211-211 0-116 95-211 211-211 43 0 84 13 120 37 5 4 11 2 15-3 3-4 2-11-3-14-39-27-84-41-132-41z m0 43c-61 0-119 31-154 81-4 5-3 11 2 15 5 3 12 2 15-3 31-45 83-71 137-71 6 0 11-5 11-11 0-6-5-11-11-11z m148 278c-4 0-7 1-9 4-31 47-83 74-139 74-6 0-10 5-10 11 0 6 4 11 10 11 63 0 121-32 157-84 3-4 2-11-3-14-2-2-4-2-6-2z m-148-166c-42 0-77 35-77 77 0 42 35 77 77 77 43 0 77-35 77-77 0-42-34-77-77-77z m0 132c-30 0-55-24-55-55 0-31 25-55 55-55 31 0 56 24 56 55 0 31-25 55-56 55z m182-269c-54 0-98 44-98 98 0 55 44 99 98 99 54 0 98-44 98-99 0-54-44-98-98-98z m0 175c-42 0-77-34-77-77 0-42 35-76 77-76 42 0 77 34 77 76 0 43-35 77-77 77z m-18-121c-3 0-6 1-8 3-12 13-26 29-30 32-5 2-7 6-6 11 1 6 6 10 12 9 3-1 7-1 33-30l59 47c4 4 11 3 15-2 3-4 3-11-2-15l-66-53c-2-1-5-2-7-2z"/>
<glyph unicode="&#68;" d="M256 0c-141 0-256 115-256 256 0 141 115 256 256 256 141 0 256-115 256-256 0-141-115-256-256-256z m0 491c-129 0-235-106-235-235 0-129 106-235 235-235 129 0 235 106 235 235 0 129-106 235-235 235z m0-287c-29 0-52 23-52 52 0 29 23 52 52 52 29 0 52-23 52-52 0-29-23-52-52-52z m0 83c-17 0-31-14-31-31 0-17 14-31 31-31 17 0 31 14 31 31 0 17-14 31-31 31z m40 39c-1 0-3 0-5 1-22 11-48 11-70 0-3-2-6-2-9-1-2 1-5 3-6 5l-54 106c-2 5 0 12 5 14 31 16 64 24 99 24 35 0 68-8 99-24 5-2 7-9 5-14l-54-106c-1-2-4-4-6-5-2 0-3 0-4 0z m-120 111l45-87c22 9 48 9 70 0l45 87c-51 22-109 22-160 0z m80-400c-35 0-68 8-99 24-5 2-7 9-5 14l54 106c1 2 4 4 6 5 3 1 6 0 9-1 22-11 48-11 70 0 3 1 6 2 9 1 2-1 4-3 6-5l53-106c3-5 1-12-4-14-31-16-64-24-99-24z m-80 38c26-11 52-17 80-17 28 0 54 6 80 17l-45 87c-22-9-48-9-70 0z m266 76c-2 0-3 1-5 1l-106 54c-2 1-4 4-5 6-1 3-1 6 1 9 5 11 8 23 8 35 0 12-2 24-8 35-1 3-2 6-1 9 1 2 3 5 5 6l106 54c5 2 12 0 14-5 16-31 24-64 24-99 0-35-8-68-24-99-1-4-5-6-9-6z m-92 70l87-45c11 26 17 52 17 80 0 28-6 54-17 80l-87-45c5-11 7-23 7-35 0-12-3-24-7-35z m-280-70c-4 0-8 2-9 6-16 31-24 64-24 99 0 35 8 68 24 99 2 5 9 7 14 5l106-54c2-1 4-4 5-6 1-3 0-6-1-9-6-11-8-23-8-35 0-12 2-24 8-35 1-3 2-6 1-9-1-2-3-5-5-6l-106-54c-2 0-3-1-5-1z m5 185c-11-26-17-52-17-80 0-28 6-54 17-80l87 45c-5 11-7 23-7 35 0 12 2 24 7 35z m380 87c-14 0-31 4-49 14-5 2-7 9-5 14 3 5 9 7 15 5 25-13 44-15 56-7 17 11 19 41 19 52-1 6 4 11 10 11 6 0 11-4 11-10 0-2 2-51-29-71-8-6-17-8-28-8z"/>
<glyph unicode="&#69;" d="M455 112l-398 0c-32 0-57 26-57 57l0 277c0 31 25 57 57 57l398 0c32 0 57-26 57-57l0-277c0-31-25-57-57-57z m-398 369c-20 0-36-16-36-35l0-277c0-20 16-36 36-36l398 0c20 0 36 16 36 36l0 277c0 19-16 35-36 35z m199-472c-6 0-11 5-11 11l0 94c0 6 5 11 11 11 6 0 11-5 11-11l0-94c0-6-5-11-11-11z m105 0l-210 0c-6 0-11 5-11 11 0 6 5 11 11 11l210 0c6 0 11-5 11-11 0-6-5-11-11-11z m-74 142c-67 0-122 55-122 123 0 67 55 122 122 122 68 0 122-55 122-122 0-68-54-123-122-123z m0 224c-55 0-101-46-101-101 0-56 46-101 101-101 56 0 101 45 101 101 0 55-45 101-101 101z m204-316c-3 0-6 1-8 3l-125 125c-4 4-4 11 0 15 5 5 11 5 16 0l124-125c5-4 5-10 0-15-2-2-4-3-7-3z m-161 204l-86 0c-6 0-11 5-11 11 0 6 5 10 11 10l86 0c6 0 11-4 11-10 0-6-5-11-11-11z"/>
<glyph unicode="&#70;" d="M463 0l-136 0c-27 0-49 22-49 49l0 414c0 27 22 49 49 49l136 0c27 0 49-22 49-49l0-414c0-27-22-49-49-49z m-136 491c-15 0-28-13-28-28l0-414c0-15 13-28 28-28l136 0c15 0 28 13 28 28l0 414c0 15-13 28-28 28z m-117-203l-171 0c-21 0-39 17-39 39l0 113c0 22 18 39 39 39l171 0c21 0 39-17 39-39l0-113c0-10-4-20-11-28-8-7-18-11-28-11z m-171 170c-10 0-18-8-18-18l0-113c0-10 8-18 18-18l171 0c10 0 18 8 18 18l0 113c0 10-8 18-18 18z m356-155c-42 0-77 35-77 77 0 42 35 77 77 77 42 0 77-35 77-77 0-42-35-77-77-77z m0 133c-31 0-55-25-55-56 0-30 24-55 55-55 30 0 55 25 55 55 0 31-25 56-55 56z m51-300l-104 0c-6 0-11 4-11 10 0 6 5 11 11 11l104 0c6 0 10-5 10-11 0-6-4-10-10-10z m0-57l-104 0c-6 0-11 4-11 10 0 6 5 11 11 11l104 0c6 0 10-5 10-11 0-6-4-10-10-10z m-157 294l-43 0c-6 0-11 5-11 11 0 6 5 10 11 10l43 0c5 0 10-4 10-10 0-6-5-11-10-11z"/>
<glyph unicode="&#71;" d="M455 112l-398 0c-32 0-57 26-57 57l0 277c0 31 25 57 57 57l398 0c32 0 57-26 57-57l0-277c0-31-25-57-57-57z m-398 369c-20 0-36-16-36-35l0-277c0-20 16-36 36-36l398 0c20 0 36 16 36 36l0 277c0 19-16 35-36 35z m199-472c-6 0-11 5-11 11l0 94c0 6 5 11 11 11 6 0 11-5 11-11l0-94c0-6-5-11-11-11z m105 0l-210 0c-6 0-11 5-11 11 0 6 5 11 11 11l210 0c6 0 11-5 11-11 0-6-5-11-11-11z"/>
<glyph unicode="&#72;" d="M455 112l-398 0c-32 0-57 26-57 57l0 277c0 31 25 57 57 57l398 0c32 0 57-26 57-57l0-277c0-31-25-57-57-57z m-398 369c-20 0-36-16-36-35l0-277c0-20 16-36 36-36l398 0c20 0 36 16 36 36l0 277c0 19-16 35-36 35z m199-472c-6 0-11 5-11 11l0 94c0 6 5 11 11 11 6 0 11-5 11-11l0-94c0-6-5-11-11-11z m105 0l-210 0c-6 0-11 5-11 11 0 6 5 11 11 11l210 0c6 0 11-5 11-11 0-6-5-11-11-11z m-74 142c-67 0-122 55-122 123 0 67 55 122 122 122 68 0 122-55 122-122 0-68-54-123-122-123z m0 224c-55 0-101-46-101-101 0-56 46-101 101-101 56 0 101 45 101 101 0 55-45 101-101 101z m204-316c-3 0-6 1-8 3l-124 125c-5 4-5 11 0 15 4 5 10 5 15 0l124-125c5-4 5-10 0-15-2-2-4-3-7-3z m-173 174c-3 0-6 1-8 3l-61 61c-4 4-4 11 0 15 4 4 11 4 15 0l61-61c4-4 4-11 0-15-2-2-5-3-7-3z m-61 0c-3 0-6 1-8 3-4 4-4 11 0 15l61 61c4 4 11 4 15 0 4-4 4-11 0-15l-61-61c-2-2-5-3-7-3z"/>
<glyph unicode="&#73;" d="M129 0c-72 0-129 32-129 72 0 40 57 72 129 72 72 0 129-32 129-72 0-40-57-72-129-72z m0 123c-63 0-108-27-108-51 0-24 45-51 108-51 63 0 108 27 108 51 0 24-45 51-108 51z m0-88c-35 0-61 16-61 37 0 21 26 37 61 37 35 0 61-16 61-37 0-21-26-37-61-37z m0 52c-25 0-40-10-40-15 0-5 15-15 40-15 24 0 39 10 39 15 0 5-15 15-39 15z m129-10l-21 0-3 6c-11 20-50 40-105 40-55 0-94-20-105-40l-3-6-21 0 0 363c0 40 57 72 129 72 33 0 65-7 88-19 26-14 41-32 41-53z m-129 414c-63 0-108-27-108-51l0-328c23 20 63 32 108 32 45 0 84-12 107-32l0 328c0 12-10 24-28 34-21 11-49 17-79 17z m245-422c-44 0-88 7-130 19-5 2-8 6-8 10l0 328c0 3 2 7 5 9 2 2 6 2 9 1 81-24 168-24 248 0 4 1 7 1 10-1 2-2 4-6 4-9l0-328c0-4-3-8-8-10-42-12-86-19-130-19z m-116 38c76-21 157-21 233 0l0 305c-76-20-157-20-233 0z m116 27c-44 0-88 6-130 19-5 1-8 5-8 10l0 199c0 3 2 6 5 8 2 2 6 3 9 2 57-17 117-22 176-15 3 0 6-1 9-3 2-2 3-5 3-8l0-198c0-6-4-10-9-11-18-2-37-3-55-3z m-116 37c51-14 105-19 159-14l0 178c-54-5-108-1-159 13z m20 202c-5 1-9 2-13 3l5 21c4-1 8-2 12-3z m29-5c-4 0-8 1-13 2l4 21c4-1 8-2 13-2z m31-4c-5 1-9 1-14 2l3 21c4-1 8-1 12-1z m30-1c-5 0-9 0-14 0l1 22c4-1 9-1 13-1z m16 0l0 21c4 0 8 1 13 1l1-22c-5 0-9 0-14 0z m31 2l-2 21c4 0 8 1 12 1l3-21c-5-1-9-1-13-1z m30 3l-4 21c5 1 9 2 13 2l4-20c-5-1-9-2-13-3z m-167-256c-5 1-9 2-13 3l5 20c4-1 8-2 12-3z m30-6c-5 1-9 2-14 2l4 21c4 0 8-1 13-2z m30-3c-5 0-9 1-14 1l3 21c4 0 8-1 12-1z m30-2c-5 0-9 1-14 1l1 21c5 0 9 0 13 0z m17 0l-1 22c4 0 8 0 13 0l1-21c-5 0-9 0-13-1z m30 2l-2 21c4 1 8 1 12 2l3-22c-5 0-9-1-13-1z m30 4l-4 21c5 0 9 1 13 2l4-21c-5-1-9-2-13-2z"/>
<glyph unicode="&#74;" d="M232 24c-128 0-232 104-232 232 0 128 104 232 232 232 128 0 232-104 232-232 0-13-1-26-3-38-1-6-6-10-12-9-6 1-10 7-9 12 2 12 3 23 3 35 0 116-94 211-211 211-116 0-211-95-211-211 0-116 95-211 211-211 43 0 84 13 120 37 5 4 11 2 15-3 3-4 2-11-3-14-39-27-84-41-132-41z m0 43c-61 0-119 31-154 81-4 5-3 11 2 15 5 3 12 2 15-3 31-45 83-71 137-71 6 0 11-5 11-11 0-6-5-11-11-11z m148 278c-4 0-7 1-9 4-31 47-83 74-139 74-6 0-10 5-10 11 0 6 4 11 10 11 63 0 121-32 157-84 3-4 2-11-3-14-2-2-4-2-6-2z m-148-166c-42 0-77 35-77 77 0 42 35 77 77 77 43 0 77-35 77-77 0-42-34-77-77-77z m0 132c-30 0-55-24-55-55 0-31 25-55 55-55 31 0 56 24 56 55 0 31-25 55-56 55z m182-269c-54 0-98 44-98 98 0 55 44 99 98 99 54 0 98-44 98-99 0-54-44-98-98-98z m0 175c-42 0-77-34-77-77 0-42 35-76 77-76 42 0 77 34 77 76 0 43-35 77-77 77z m0-97c-6 0-11 5-11 10l0 59c0 6 5 11 11 11 6 0 11-5 11-11l0-59c0-5-5-10-11-10z m0-39c-6 0-11 5-11 11l0 7c0 6 5 11 11 11 6 0 11-5 11-11l0-7c0-6-5-11-11-11z"/>
<glyph unicode="&#75;" d="M400 0l-288 0c-62 0-112 50-112 112l0 288c0 62 50 112 112 112l288 0c62 0 112-50 112-112l0-288c0-62-50-112-112-112z m-288 491c-50 0-91-41-91-91l0-288c0-50 41-91 91-91l288 0c50 0 91 41 91 91l0 288c0 50-41 91-91 91z m-71-461c-3 0-6 1-8 3-4 4-4 11 0 15l431 431c4 4 11 4 15 0 4-4 4-11 0-15l-431-431c-2-2-5-3-7-3z m190 333l-134 0c-6 0-11 5-11 11 0 6 5 11 11 11l134 0c6 0 11-5 11-11 0-6-5-11-11-11z m-67-67c-6 0-11 5-11 11l0 134c0 6 5 11 11 11 6 0 11-5 11-11l0-134c0-6-5-11-11-11z m249-186l-134 0c-6 0-11 5-11 10 0 6 5 11 11 11l134 0c6 0 11-5 11-11 0-5-5-10-11-10z"/>
<glyph unicode="&#76;" d="M426 0l-307 0c-48 0-86 32-86 72l0 166c0 6 4 10 10 10 6 0 11-4 11-10l0-166c0-28 29-51 65-51l307 0c36 0 65 23 65 51l0 166c0 6 4 10 10 10 6 0 11-4 11-10l0-166c0-40-39-72-86-72z m75 209l-458 0c-6 0-10 5-10 11l0 84c0 6 4 10 10 10l458 0c6 0 11-4 11-10l0-84c0-6-5-11-11-11z m-447 21l437 0 0 63-437 0z m71-16c-3 0-6 1-8 3l-69 76c-4 5-4 12 0 15 5 4 12 4 15 0l69-76c4-5 4-12 0-16-2-1-5-2-7-2z m81 0c-3 0-6 1-8 3l-69 76c-4 5-4 12 0 15 5 4 11 4 15 0l69-76c4-5 4-12 0-16-2-1-5-2-7-2z m81 0c-3 0-6 1-8 3l-69 76c-4 5-4 12 0 15 5 4 11 4 15 0l69-76c4-5 4-12 0-16-2-1-5-2-7-2z m81 0c-3 0-6 1-8 3l-69 76c-4 5-4 12 0 15 5 4 11 4 15 0l69-76c4-5 4-12 0-16-2-1-5-2-7-2z m81 0c-3 0-6 1-8 3l-69 76c-4 5-4 12 0 15 5 4 11 4 15 0l69-76c4-5 4-12 0-16-2-1-5-2-7-2z m52 31c-3 0-5 1-8 3l-40 45c-4 5-4 12 0 15 5 4 11 4 15 0l41-45c4-5 4-11 0-15-3-2-5-3-8-3z m-458 48c-4 0-8 3-10 7l-32 79c-1 3-1 6 0 9 1 3 4 5 7 6l434 118c6 1 11-2 13-7l33-79c1-3 1-6-1-9-1-3-3-5-6-6l-435-118c-1 0-2 0-3 0z m-18 83l25-60 413 113-24 60z m94-58c-2 0-4 1-6 2l-95 54c-5 3-7 10-4 15 3 5 10 7 15 4l95-55c5-3 7-9 4-14-2-4-6-6-9-6z m76 21c-1 0-3 1-5 2l-95 54c-5 3-7 10-4 15 3 5 9 7 15 4l95-55c5-3 7-9 4-14-2-4-6-6-10-6z m77 21c-2 0-3 1-5 1l-95 55c-5 3-7 9-4 15 3 5 9 6 14 3l96-54c5-3 6-9 4-15-2-3-6-5-10-5z m77 21c-2 0-4 0-5 1l-95 55c-5 3-7 9-4 14 3 5 9 7 14 4l95-54c6-3 7-10 4-15-2-3-5-5-9-5z m77 21c-2 0-4 0-5 1l-96 55c-5 3-6 9-4 14 3 5 10 7 15 4l95-54c5-3 7-10 4-15-2-3-5-5-9-5z m38 43c-2 0-4 0-5 1l-57 33c-5 3-7 9-4 14 3 5 10 7 15 4l56-32c5-3 7-10 4-15-2-3-5-5-9-5z m-192-405c-6 0-10 5-10 11l0 126c0 6 4 11 10 11 6 0 11-5 11-11l0-126c0-6-5-11-11-11z"/>
<glyph unicode="&#77;" d="M455 112l-398 0c-32 0-57 26-57 57l0 277c0 31 25 57 57 57l398 0c32 0 57-26 57-57l0-277c0-31-25-57-57-57z m-398 369c-20 0-36-16-36-35l0-277c0-20 16-36 36-36l398 0c20 0 36 16 36 36l0 277c0 19-16 35-36 35z m199-472c-6 0-11 5-11 11l0 94c0 6 5 11 11 11 6 0 11-5 11-11l0-94c0-6-5-11-11-11z m105 0l-210 0c-6 0-11 5-11 11 0 6 5 11 11 11l210 0c6 0 11-5 11-11 0-6-5-11-11-11z m-74 142c-67 0-122 55-122 123 0 67 55 122 122 122 68 0 122-55 122-122 0-68-54-123-122-123z m0 224c-55 0-101-46-101-101 0-56 46-101 101-101 56 0 101 45 101 101 0 55-45 101-101 101z m204-316c-3 0-6 1-8 3l-124 125c-5 4-5 11 0 15 4 5 10 5 15 0l124-125c5-4 5-10 0-15-2-2-4-3-7-3z m-161 204l-86 0c-6 0-11 5-11 11 0 6 5 10 11 10l86 0c6 0 11-4 11-10 0-6-5-11-11-11z m-43-43c-6 0-10 5-10 11l0 86c0 6 4 10 10 10 6 0 11-4 11-10l0-86c0-6-5-11-11-11z"/>
<glyph unicode="&#78;" d="M390 64c-49 0-89 53-109 108l-50 0c-20-55-60-108-109-108-67 0-122 105-122 173 0 67 55 122 122 122 2 0 4 0 7 0 1 0 1 0 2 0l250 0c1 0 1 0 2 0 3 0 5 0 7 0 67 0 122-55 122-122 0-68-55-173-122-173z m-167 129l66 0c5 0 9-3 10-7 16-48 51-100 91-100 54 0 101 94 101 151 0 55-45 101-101 101-3 0-5-1-8-1-2 0-3 0-4 1l-244 0c-1-1-2-1-4-1-3 0-5 1-8 1-56 0-101-46-101-101 0-57 47-151 101-151 40 0 75 52 91 100 1 4 5 7 10 7z m182 82c0-8-7-15-15-15-9 0-15 7-15 15 0 8 6 15 15 15 8 0 15-7 15-15z m0-86c0-9-7-15-15-15-9 0-15 6-15 15 0 8 6 15 15 15 8 0 15-7 15-15z m43 43c0-8-7-15-15-15-8 0-15 7-15 15 0 8 7 15 15 15 8 0 15-7 15-15z m-86 0c0-8-7-15-15-15-9 0-15 7-15 15 0 8 6 15 15 15 8 0 15-7 15-15z m-186-6l-91 0c-6 0-11 5-11 11 0 6 5 11 11 11l91 0c6 0 11-5 11-11 0-6-5-11-11-11z m-45-45c-6 0-11 4-11 10l0 92c0 5 5 10 11 10 6 0 10-5 10-10l0-92c0-6-4-10-10-10z m108 164c0 0 0 0 0 0-6 0-11 5-10 11 0 2 3 57 41 81 22 14 51 14 85 0 6-2 8-8 6-14-2-5-8-8-14-6-27 12-50 12-66 2-28-18-31-64-31-64-1-6-5-10-11-10z"/>
<glyph unicode="&#79;" d="M162 158l-77 0c-47 0-85 34-85 76l0 44c0 42 38 76 85 76l77 0c6 0 10-5 10-11l0-174c0-6-4-11-10-11z m-77 175c-35 0-64-25-64-55l0-44c0-30 29-55 64-55l66 0 0 154z m279-333c-11 0-24 5-37 15l-172 141c-5 3-5 10-2 15 4 4 11 5 15 1l173-140c12-9 22-13 29-9 8 3 12 14 12 29l0 408c0 15-4 26-12 29-7 4-18 0-29-9l-173-140c-4-4-11-3-15 1-3 5-3 12 2 15l172 141c19 15 38 19 53 12 15-8 23-25 23-49l0-408c0-24-8-41-23-49-5-2-10-3-16-3z m28 149c-6 0-10 4-10 10 0 6 4 11 10 11 55 0 99 39 99 86 0 47-44 86-99 86-6 0-10 5-10 11 0 6 4 10 10 10 66 0 120-48 120-107 0-59-54-107-120-107z"/>
<glyph unicode="&#80;" d="M455 112l-398 0c-32 0-57 26-57 57l0 277c0 31 25 57 57 57l398 0c32 0 57-26 57-57l0-277c0-31-25-57-57-57z m-398 369c-20 0-36-16-36-35l0-277c0-20 16-36 36-36l398 0c20 0 36 16 36 36l0 277c0 19-16 35-36 35z m199-472c-6 0-11 5-11 11l0 94c0 6 5 11 11 11 6 0 11-5 11-11l0-94c0-6-5-11-11-11z m31 142c-67 0-122 55-122 123 0 67 55 122 122 122 68 0 122-55 122-122 0-68-54-123-122-123z m0 224c-55 0-101-46-101-101 0-56 46-101 101-101 56 0 101 45 101 101 0 55-45 101-101 101z m204-316c-3 0-6 1-8 3l-124 125c-5 4-5 11 0 15 4 5 10 5 15 0l124-125c5-4 5-10 0-15-2-2-4-3-7-3z m-204 194c-6 0-10 5-10 11l0 58c0 6 4 11 10 11 6 0 11-5 11-11l0-58c0-6-5-11-11-11z m0-39c-6 0-10 5-10 11l0 8c0 5 4 10 10 10 6 0 11-5 11-10l0-8c0-6-5-11-11-11z"/>
<glyph unicode="&#81;" d="M264 0c-2 0-5 0-8 1-3-1-6-1-8-1l-13 0c-5 0-11 0-18 1l-2 0c-9 1-21 2-34 5-15 3-30 8-46 15-20 10-35 21-48 34-15 15-27 34-34 55-12 35-14 75-5 122 4 19 9 38 16 56 6 20 13 37 21 53l6 11c1 2 2 4 2 5 1 2 1 3 2 4 1 5 2 11 2 15 0 8-4 15-9 19-2 2-6 3-9 4 0 0 0 0-1 0l-3 0-2 0c-2 0-3 0-4 0-6-1-12-3-17-8-3-2-6-6-8-9-1-1-2-2-2-3l-1-1c-5-10-18-15-29-10-10 5-15 17-10 27l1 2c0 2 1 4 3 6 2 5 7 12 15 20 11 11 24 18 38 21 4 1 9 2 13 2l5 0 4 0c1 0 3 0 4 0 12-2 22-5 31-11 20-11 33-32 35-56 1-10 0-21-3-32 0-3-1-4-1-5-1-4-2-7-4-11l-5-12c-6-14-12-30-16-47-5-18-9-34-11-50-5-35-2-67 8-90 5-12 11-22 20-30 7-7 16-13 28-18 11-5 21-8 30-10 8-2 16-2 22-3l5-1c4 0 8-1 12-1 2 0 4 0 6 0l8-1c2 0 4 0 6 0 2 0 4 0 6 0l8 1c2 0 4 0 6 0 4 0 7 1 12 1l5 1c6 1 14 1 21 3 10 2 20 5 31 10 12 5 21 11 28 18 9 8 15 18 20 30 10 23 13 55 8 90-2 16-6 32-11 50-4 17-10 33-16 47l-5 12c-2 4-3 7-4 11 0 1-1 2-1 4-3 12-4 23-3 33 2 24 15 45 35 56 9 6 19 9 31 11 1 0 3 0 4 0l6 0 1 0 0-11 1 11 1 0c4 0 9-1 13-2 14-3 27-10 38-21 8-8 13-15 15-20 2-2 3-4 3-6l1-2c5-10 0-22-10-27-11-5-24 0-29 9l8 7-9-5c0 1-1 2-2 3-2 3-5 7-9 10-4 4-10 6-15 7-2 0-3 0-5 0l-5 0c-1 0-1 0-2 0-2-1-6-2-8-4-5-4-9-11-9-19 0-5 1-10 2-15 1-1 1-2 2-4 0-1 1-3 2-4l5-12c9-16 16-33 22-53 7-18 12-38 16-56 9-47 7-87-5-122-7-22-19-40-34-55-13-13-28-24-48-34-16-7-31-12-46-15-13-3-25-4-34-5l-2 0c-7-1-13-1-18-1z m-8 23l3-1c2 0 4-1 5-1l0-10 1 10 12 1c4 0 10 0 16 0l2 0c9 1 19 2 31 5 14 3 28 7 42 13 17 9 31 18 42 30 13 12 22 29 29 47 11 31 12 67 4 111-4 17-9 36-15 53-6 19-13 35-21 51l-5 11c-2 2-3 5-3 7-1 1-1 2-2 3l0 1c-2 8-4 15-4 22 1 16 8 29 19 37 6 4 13 6 16 7 1 0 3 0 4 0l5 1 2 0c3 0 6-1 8-1 9-1 18-5 26-12 5-4 9-9 13-14 1-2 2-4 3-5l1-2 0 2c0 0-1 2-2 4-3 4-6 9-12 15-8 8-17 13-27 15-4 1-7 1-10 1l-2 1 0 10-1-10-5-1c0 0-1 0-2 0-8-1-15-3-23-7-13-8-22-23-24-40 0-8 0-16 2-25 1-1 1-3 2-4 1-3 1-6 2-8l6-13c6-15 12-32 17-49 5-19 9-36 11-53 4-27 5-67-9-101-6-15-15-28-25-38-9-8-20-15-34-22-14-5-25-9-35-11-9-2-17-3-24-3l-4-1c-6-1-10-1-14-1-2 0-4 0-5 0l-9-1c-1 0-2 0-4-1l-3-1-3 1c-2 1-3 1-4 1l-9 1c-1 0-3 0-5 0-4 0-8 0-14 1l-4 1c-7 0-15 1-24 3-10 2-21 6-34 11-15 7-26 14-35 22-10 10-19 23-25 38-14 34-13 74-9 101 2 17 6 34 11 53 5 17 11 34 17 49l5 13c2 2 2 5 3 8 1 1 1 3 2 5 2 8 2 16 2 24-2 17-11 32-24 40-8 4-15 6-23 7-1 0-2 0-2 0l-6 1-2-1c-3 0-6 0-9-1-11-2-20-7-28-15-6-6-10-11-12-15-1-2-2-4-2-5l-1-1 1 1 1 1c1 1 2 3 3 5 4 5 8 10 13 14 8 7 17 11 26 12 2 0 5 1 8 1l7-1c1 0 3 0 4 0 3-1 11-3 17-8 10-7 17-20 17-35 1-8-1-15-3-23l0-1c-1-1-1-2-2-3 0-2-1-5-3-8l-6-10c-7-16-14-32-20-51-6-17-11-35-15-53-8-44-7-80 4-111 7-18 16-35 29-47 11-12 25-21 42-30 14-6 28-10 42-13 12-3 22-4 31-5l2 0c6 0 12 0 16 0l12-1c0 0 0 0 0 0 2 0 4 1 6 1z m0 32c-6 0-11 5-11 10l0 436c0 6 5 11 11 11 6 0 11-5 11-11l0-436c0-5-5-10-11-10z m-71 0c-6 0-11 5-11 10l0 390c0 6 5 11 11 11 5 0 10-5 10-11l0-390c0-5-5-10-10-10z m142 0c-5 0-10 5-10 10l0 390c0 6 5 11 10 11 6 0 11-5 11-11l0-390c0-5-5-10-11-10z m37 298l-218 0c-5 0-10 5-10 10 0 6 5 11 10 11l218 0c6 0 11-5 11-11 0-5-5-10-11-10z"/>
<glyph unicode="&#82;" d="M472 89l-432 0c-22 0-40 18-40 40l0 254c0 22 18 40 40 40l432 0c22 0 40-18 40-40l0-254c0-11-4-21-12-29-7-7-18-11-28-11z m-432 313c-10 0-19-8-19-19l0-254c0-11 9-19 19-19l432 0c10 0 19 8 19 19l0 254c0 11-9 19-19 19z m37-306c-2 0-4 0-6 1-5 3-7 10-3 15l40 67c2 3 6 5 10 5l269 0c4 0 7-1 9-4l48-67c3-5 2-12-2-15-5-4-12-3-15 2l-45 63-258 0-38-62c-2-3-6-5-9-5z m76 129c-29 0-52 23-52 52 0 29 23 53 52 53 29 0 53-24 53-53 0-29-24-52-53-52z m0 84c-17 0-31-14-31-32 0-17 14-31 31-31 17 0 32 14 32 31 0 18-15 32-32 32z m206-84c-29 0-53 23-53 52 0 29 24 53 53 53 29 0 52-24 52-53 0-29-23-52-52-52z m0 84c-17 0-32-14-32-32 0-17 15-31 32-31 17 0 31 14 31 31 0 18-14 32-31 32z"/>
<glyph unicode="&#83;" d="M252 0c-57 0-112 19-157 54-48 37-81 90-94 149 0 2 0 5 2 8 1 2 4 4 7 4l71 12c6 1 11-2 12-8 9-37 29-68 59-91 29-22 63-34 100-34 38 0 75 13 104 37l-48 37c-3 3-4 7-4 11 1 4 5 7 9 8l164 36c3 0 6-1 9-2 2-2 4-5 4-8l6-166c0-1 0-2 0-3 0-6-5-10-10-11-3 0-5 1-7 3l-47 36c-48-46-113-72-180-72z m-227 196c13-49 42-94 83-125 41-33 91-50 144-50 65 0 127 27 171 73 4 4 10 4 14 1l37-29-5 133-130-28 40-31c3-2 4-5 4-8 1-3-1-6-3-8-34-33-80-52-128-52-41 0-80 14-113 39-30 24-53 57-64 94z m404 67c-2 0-5 0-7 2-2 2-3 4-4 7-5 45-27 85-62 112-29 22-63 34-100 34-38 0-75-13-104-37l48-37c3-3 5-7 4-11-1-4-4-7-8-8l-165-36c-3 0-6 1-9 2-2 2-4 5-4 8l-6 169c0 4 2 8 6 10 4 1 8 1 11-2l48-36c47 46 112 72 179 72 58 0 112-19 158-54 54-42 89-103 97-172 1-5-3-11-9-11l-71-12c-1 0-2 0-2 0z m-173 177c42 0 81-14 113-39 37-29 61-69 69-115l50 8c-9 59-40 111-87 147-42 33-92 50-145 50-64 0-127-27-171-73-3-4-10-4-14-1l-37 29 5-133 130 28-40 31c-3 2-4 5-4 8 0 3 1 6 3 8 35 33 80 52 128 52z"/>
<glyph unicode="&#84;" d="M256 0c-125 0-226 101-226 226 0 6 5 11 10 11l64 0c6 0 10-5 10-11 0-78 64-141 142-141 78 0 142 63 142 141 0 66-46 123-109 138l0-51c0-5-2-8-6-10-4-2-8-1-12 1l-112 95c-3 2-4 5-4 8 0 3 1 6 4 8l112 95c4 2 8 3 12 1 4-2 6-6 6-10l0-51c111-16 193-111 193-224 0-125-101-226-226-226z m-205 216c6-108 96-195 205-195 113 0 205 92 205 205 0 106-79 193-184 204-5 1-9 5-9 11l0 37-86-71 86-72 0 42c0 3 1 6 3 8 3 2 6 3 9 2 79-11 139-81 139-161 0-90-73-163-163-163-86 0-157 68-163 153z"/>
<glyph unicode="&#85;" d="M281 0l-50 0c-30 0-54 24-54 54l0 115c-62 30-101 93-101 163 0 99 81 180 180 180 99 0 180-81 180-180 0-70-39-133-101-163l0-115c0-30-25-54-54-54z m-25 491c-88 0-159-72-159-159 0-64 37-121 95-146 4-2 7-6 7-10l0-122c0-18 14-33 32-33l50 0c18 0 32 15 32 33l0 122c0 4 3 8 7 10 58 25 95 82 95 146 0 87-71 159-159 159z m-63-389c-4 0-8 2-10 6-2 6 1 12 6 14l131 56c5 2 12 0 14-6 2-5 0-12-6-14l-131-55c-1-1-2-1-4-1z m0-61c-4 0-8 2-10 6-2 6 1 12 6 14l131 56c5 2 12 0 14-6 2-5 0-12-6-14l-131-55c-1-1-2-1-4-1z m-50 299c-1 0-1 0-2 0-6 1-10 7-8 13 0 2 15 68 72 89 6 2 12 0 14-6 2-5-1-12-6-14-47-17-59-73-60-74-1-5-5-8-10-8z"/>
<glyph unicode="&#86;" d="M427 0l-342 0c-47 0-85 38-85 85l0 342c0 47 38 85 85 85l342 0c47 0 85-38 85-85l0-342c0-47-38-85-85-85z m-342 491c-35 0-64-29-64-64l0-342c0-35 29-64 64-64l342 0c35 0 64 29 64 64l0 342c0 35-29 64-64 64z m361-377l-152 0c-6 0-11 5-11 11l0 262c0 6 5 11 11 11l152 0c6 0 10-5 10-11l0-262c0-6-4-11-10-11z m-141 21l130 0 0 241-130 0z m-87-21l-152 0c-6 0-10 5-10 11l0 262c0 6 4 11 10 11l152 0c6 0 11-5 11-11l0-262c0-6-5-11-11-11z m-141 21l130 0 0 241-130 0z m-13 321l27 0 0-21-27 0z m60 0l27 0 0-21-27 0z m59 0l27 0 0-21-27 0z m59 0l28 0 0-21-28 0z m60 0l27 0 0-21-27 0z m59 0l27 0 0-21-27 0z m60 0l27 0 0-21-27 0z m-357-379l27 0 0-21-27 0z m60 0l27 0 0-21-27 0z m59 0l27 0 0-21-27 0z m59 0l28 0 0-21-28 0z m60 0l27 0 0-21-27 0z m59 0l27 0 0-21-27 0z m60 0l27 0 0-21-27 0z"/>
<glyph unicode="&#87;" d="M360 0l-208 0c-34 0-61 28-61 62l0 389c0 33 27 61 61 61l208 0c34 0 61-28 61-61l0-389c0-34-27-62-61-62z m-208 491c-22 0-40-18-40-40l0-390c0-22 18-40 40-40l208 0c22 0 40 18 40 40l0 390c0 22-18 40-40 40z m209-370l-210 0c-6 0-11 5-11 10l0 289c0 6 5 11 11 11l210 0c6 0 11-5 11-11l0-289c0-5-5-10-11-10z m-199 21l188 0 0 267-188 0z m128 303l-68 0c-6 0-10 5-10 11 0 6 4 10 10 10l68 0c6 0 11-4 11-10 0-6-5-11-11-11z m-34-408c-18 0-33 15-33 33 0 18 15 33 33 33 18 0 33-15 33-33 0-18-15-33-33-33z m0 44c-6 0-11-5-11-11 0-6 5-11 11-11 6 0 11 5 11 11 0 6-5 11-11 11z"/>
<glyph unicode="&#88;" d="M139 158l-61 0c-38 0-69 34-69 76l0 44c0 42 31 76 69 76l61 0c5 0 10-5 10-11l0-174c0-6-5-11-10-11z m-61 175c-26 0-47-25-47-55l0-44c0-30 21-55 47-55l50 0 0 154z m220-333c-8 0-19 3-32 16l-135 140c-4 5-4 11 0 15 4 5 11 4 15 0l136-140c8-9 15-11 18-9 4 2 9 12 9 30l0 408c0 18-5 28-9 30-3 2-10 0-19-9l-135-140c-4-4-11-5-15 0-4 4-4 10 0 15l135 140c20 19 35 17 42 14 14-6 22-24 22-50l0-408c0-26-8-44-22-50-2-1-6-2-10-2z m22 149c-6 0-11 4-11 10 0 6 5 11 11 11 41 0 75 39 75 86 0 47-34 86-75 86-6 0-11 5-11 11 0 6 5 10 11 10 53 0 96-48 96-107 0-59-43-107-96-107z m172-12c-1 0-3 1-4 1l-61 29c-5 3-7 9-5 15 3 5 9 7 15 4l60-29c5-2 7-8 5-14-2-4-6-6-10-6z m-78-76c-4 0-8 2-10 6l-26 61c-2 6 0 12 6 14 5 3 11 0 14-5l26-61c2-6 0-12-6-14-1-1-2-1-4-1z m18 263c-4 0-8 3-10 6-2 6 0 12 5 15l61 29c5 2 11 0 14-5 2-6 0-12-5-14l-60-29c-2-1-3-2-5-2z m-44 45c-2 0-3 0-4 1-6 2-8 8-6 14l26 61c3 5 9 8 14 5 6-2 8-8 6-14l-26-61c-2-4-6-6-10-6z"/>
<glyph unicode="&#89;" d="M162 158l-77 0c-47 0-85 34-85 76l0 44c0 42 38 76 85 76l77 0c6 0 10-5 10-11l0-174c0-6-4-11-10-11z m-77 175c-35 0-64-25-64-55l0-44c0-30 29-55 64-55l66 0 0 154z m279-333c-11 0-24 5-37 15l-172 141c-5 3-5 10-2 15 4 4 11 5 15 1l173-140c12-9 22-13 29-9 8 3 12 14 12 29l0 408c0 15-4 26-12 29-7 4-18 0-29-9l-173-140c-4-4-11-3-15 1-3 5-3 12 2 15l172 141c19 15 38 19 53 12 15-8 23-25 23-49l0-408c0-24-8-41-23-49-5-2-10-3-16-3z m28 149c-6 0-10 4-10 10 0 6 4 11 10 11 55 0 99 39 99 86 0 47-44 86-99 86-6 0-10 5-10 11 0 6 4 10 10 10 66 0 120-48 120-107 0-59-54-107-120-107z m-374-142c-3 0-6 1-8 3-4 4-4 11 0 15l477 477c4 4 11 4 15 0 4-4 4-11 0-15l-477-477c-2-2-5-3-7-3z"/>
<glyph unicode="&#90;" d="M380 109l-305 0c-41 0-75 34-75 75l0 144c0 41 34 75 75 75l305 0c41 0 75-34 75-75l0-14 28 0c16 0 29-13 29-29l0-58c0-16-13-29-29-29l-28 0 0-14c0-41-34-75-75-75z m-305 273c-14 0-28-6-38-16-10-10-16-24-16-38l0-144c0-30 24-54 54-54l305 0c29 0 54 24 54 54l0 25c0 6 4 11 10 11l39 0c4 0 8 3 8 7l0 58c0 4-4 7-8 7l-39 0c-6 0-10 5-10 11l0 25c0 30-25 54-54 54z m152-234l-86 0c-6 0-11 4-11 10l0 196c0 6 5 10 11 10l86 0c6 0 11-4 11-10l0-196c0-6-5-10-11-10z m-75 21l64 0 0 174-64 0z m-11-21l-57 0c-22 0-39 17-39 38l0 140c0 21 17 38 39 38l57 0c6 0 11-4 11-10l0-196c0-6-5-10-11-10z m-57 195c-10 0-18-8-18-17l0-140c0-10 8-17 18-17l46 0 0 174z m286-195l-57 0c-6 0-11 4-11 10l0 196c0 6 5 10 11 10l57 0c21 0 39-17 39-38l0-140c0-21-18-38-39-38z m-47 21l47 0c10 0 18 7 18 17l0 140c0 9-8 17-18 17l-47 0z m-10-21l-86 0c-6 0-11 4-11 10l0 196c0 6 5 10 11 10l86 0c6 0 10-4 10-10l0-196c0-6-4-10-10-10z m-75 21l64 0 0 174-64 0z"/>
<glyph unicode="&#48;" d="M230 179c-12 0-24 9-24 29l0 96c0 20 12 29 24 29 6 0 12-2 18-6l69-45c10-7 16-16 16-26 0-10-6-19-16-26l-69-45c-6-4-12-6-18-6z m0 133c-3 0-3-8-3-8l0-96c0 0 0-8 3-8 1 0 3 1 7 3l69 45c3 2 5 5 5 8 0 3-2 6-5 8l-69 45c-4 2-6 3-7 3z m197-312l-342 0c-47 0-85 38-85 85l0 342c0 47 38 85 85 85l342 0c47 0 85-38 85-85l0-342c0-47-38-85-85-85z m-342 491c-35 0-64-29-64-64l0-342c0-35 29-64 64-64l342 0c35 0 64 29 64 64l0 342c0 35-29 64-64 64z m355-377l-368 0c-6 0-11 5-11 11l0 262c0 6 5 11 11 11l368 0c6 0 11-5 11-11l0-262c0-6-5-11-11-11z m-357 21l346 0 0 241-346 0z m-19 321l27 0 0-21-27 0z m60 0l27 0 0-21-27 0z m59 0l27 0 0-21-27 0z m59 0l28 0 0-21-28 0z m60 0l27 0 0-21-27 0z m59 0l27 0 0-21-27 0z m60 0l27 0 0-21-27 0z m-357-379l27 0 0-21-27 0z m60 0l27 0 0-21-27 0z m59 0l27 0 0-21-27 0z m59 0l28 0 0-21-28 0z m60 0l27 0 0-21-27 0z m59 0l27 0 0-21-27 0z m60 0l27 0 0-21-27 0z"/>
<glyph unicode="&#49;" d="M256 0c-141 0-256 115-256 256 0 141 115 256 256 256 141 0 256-115 256-256 0-141-115-256-256-256z m0 491c-129 0-235-106-235-235 0-129 106-235 235-235 129 0 235 106 235 235 0 129-106 235-235 235z m0-329c-52 0-94 42-94 94 0 52 42 94 94 94 52 0 94-42 94-94 0-52-42-94-94-94z m0 166c-40 0-72-32-72-72 0-40 32-72 72-72 40 0 72 32 72 72 0 40-32 72-72 72z m30-5c-2 0-3 0-4 0-6 3-8 9-6 14l58 152c2 5 8 8 14 6 5-2 8-8 6-14l-58-151c-2-5-6-7-10-7z m37-29c-3 0-6 1-8 4-4 5-3 12 2 15l132 95c4 4 11 3 15-2 3-5 2-12-3-15l-132-95c-1-1-4-2-6-2z m-151-280c-1 0-3 0-4 1-5 2-8 8-6 14l58 151c2 6 8 8 14 6 5-2 8-8 6-13l-58-152c-2-4-6-7-10-7z m-111 86c-3 0-7 1-9 4-3 5-2 11 3 15l131 95c5 3 12 2 15-3 4-4 3-11-2-14l-132-95c-2-2-4-2-6-2z"/>
<glyph unicode="&#50;" d="M174 78c-3 0-6 1-9 4l-162 191c-4 4-4 11 0 15l58 52c2 2 5 3 8 3 3-1 6-2 7-4l106-128 262 221c3 1 5 2 8 2 3 0 6-1 7-4l50-59c4-5 4-11-1-15l-328-276c-2-1-4-2-6-2z m-149 201l150-176 311 262-36 43-262-220c-3-2-5-3-8-2-3 0-6 1-7 3l-106 128z"/>
<glyph unicode="&#51;" d="M256 0c-141 0-256 115-256 256 0 141 115 256 256 256 141 0 256-115 256-256 0-141-115-256-256-256z m0 491c-129 0-235-106-235-235 0-129 106-235 235-235 129 0 235 106 235 235 0 129-106 235-235 235z m0-408c-31 0-61 8-87 24-3 2-5 5-5 8-1 3 0 6 3 9l221 221c3 3 6 4 9 3 4 0 6-2 8-5 16-26 24-57 24-87 0-95-78-173-173-173z m-64 36c20-10 42-15 64-15 84 0 152 68 152 152 0 22-5 44-15 64z m-76 45c0 0-1 0-1 0-3 0-6 2-8 5-16 26-24 56-24 87 0 95 78 173 173 173 31 0 61-8 87-24 3-2 5-5 5-8 1-3 0-6-3-9l-221-221c-2-2-5-3-8-3z m140 244c-84 0-152-68-152-152 0-22 5-44 15-64l201 201c-20 10-42 15-64 15z"/>
<glyph unicode="&#52;" d="M440 53l-368 0c-40 0-72 33-72 72l0 215c0 40 32 72 72 72l368 0c40 0 72-32 72-72l0-215c0-39-32-72-72-72z m-368 338c-28 0-51-23-51-51l0-215c0-28 23-50 51-50l368 0c28 0 51 22 51 50l0 215c0 28-23 51-51 51z m92 46l-49 0c-6 0-10 5-10 11 0 6 4 11 10 11l49 0c5 0 10-5 10-11 0-6-5-11-10-11z m116 0l-48 0c-6 0-11 5-11 11 0 6 5 11 11 11l48 0c6 0 11-5 11-11 0-6-5-11-11-11z m91-327l-288 0c-6 0-11 4-11 10l0 217c0 6 5 11 11 11l288 0c6 0 10-5 10-11l0-217c0-6-4-10-10-10z m-277 21l266 0 0 196-266 0z m98 41c-2 0-4 0-5 1-4 2-6 6-6 10l0 92c0 4 2 8 6 10 3 1 7 1 11-1l70-46c3-2 5-6 5-9 0-4-2-7-5-9l-70-46c-2-2-4-2-6-2z m10 83l0-53 41 27z"/>
<glyph unicode="&#53;" d="M401 65c-13 0-25 9-25 30l0 105c0 21 12 30 25 30 6 0 13-2 19-6l76-49c10-7 16-17 16-28 0-10-6-20-16-27l-76-49c-6-4-13-6-19-6z m0 144c-4 0-4-7-4-9l0-105c0-2 0-9 4-9 2 0 5 1 8 3l75 49c4 3 7 6 7 10 0 3-3 6-7 9l-75 49c-3 2-6 3-8 3z m-290-144c-6 0-13 2-19 6l-76 49c-10 7-16 17-16 27 0 11 6 21 16 28l76 49c6 4 13 6 19 6 13 0 25-9 25-30l0-105c0-21-12-30-25-30z m0 144c-2 0-5-1-8-3l-75-49c-4-3-7-6-7-10 0-3 3-6 7-9l75-49c3-2 6-3 8-3 4 0 4 7 4 9l0 105c0 2 0 9-4 9z m324-13c-5 0-10 5-10 11l0 35c0 102-76 184-169 184-93 0-169-82-169-184l0-35c0-6-5-11-10-11-6 0-11 5-11 11l0 35c0 113 85 205 190 205 105 0 190-92 190-204l0-36c0-6-5-11-11-11z"/>
<glyph unicode="&#54;" d="M316 72l-241 0c-41 0-75 34-75 75l0 163c0 42 34 76 75 76l241 0c41 0 75-34 75-76l0-163c0-41-34-75-75-75z m-241 292c-29 0-54-24-54-54l0-163c0-29 25-54 54-54l241 0c29 0 54 25 54 54l0 163c0 30-25 54-54 54z m410-225c-3 0-6 0-9 1l-99 30c-5 2-9 8-7 13 2 6 8 9 13 7l99-30c3-1 4 0 5 1 2 1 4 4 4 10l0 116c0 5-2 9-4 10-1 1-2 1-5 0l-99-30c-5-1-11 2-13 7-2 6 2 12 7 14l99 30c9 2 17 1 24-4 8-6 12-16 12-27l0-116c0-12-4-22-12-27-5-4-10-5-15-5z m-183 225c-6 0-11 5-11 11 0 35-26 42-31 44l-167 0c-6 0-11 4-11 10 0 6 5 11 11 11l168 0c0 0 1 0 2 0 17-3 50-20 50-65 0-6-5-11-11-11z m-183-189c-30 0-54 24-54 54 0 29 24 53 54 53 29 0 53-24 53-53 0-30-24-54-53-54z m0 86c-18 0-33-14-33-32 0-18 15-32 33-32 17 0 32 14 32 32 0 18-15 32-32 32z m153-86c-29 0-53 24-53 54 0 29 24 53 53 53 30 0 54-24 54-53 0-30-24-54-54-54z m0 86c-17 0-32-14-32-32 0-18 15-32 32-32 18 0 32 14 32 32 0 18-14 32-32 32z"/>
<glyph unicode="&#55;" d="M184 143c-101 0-184 83-184 185 0 101 83 184 184 184 102 0 185-83 185-184 0-102-83-185-185-185z m0 348c-90 0-163-73-163-163 0-90 73-163 163-163 90 0 163 73 163 163 0 90-73 163-163 163z m317-491c-2 0-5 1-7 3l-195 194c-4 5-4 11 0 16 5 4 11 4 16 0l194-195c4-4 4-11 0-15-2-2-5-3-8-3z m-250 317l-134 0c-6 0-10 5-10 11 0 6 4 10 10 10l134 0c6 0 11-4 11-10 0-6-5-11-11-11z m-67-67c-6 0-10 5-10 11l0 134c0 6 4 10 10 10 6 0 11-4 11-10l0-134c0-6-5-11-11-11z"/>
<glyph unicode="&#56;" d="M184 143c-101 0-184 83-184 185 0 101 83 184 184 184 102 0 185-83 185-184 0-102-83-185-185-185z m0 348c-90 0-163-73-163-163 0-90 73-163 163-163 90 0 163 73 163 163 0 90-73 163-163 163z m317-491c-2 0-5 1-7 3l-195 194c-4 5-4 11 0 16 5 4 11 4 16 0l194-195c4-4 4-11 0-15-2-2-5-3-8-3z m-250 317l-134 0c-6 0-10 5-10 11 0 6 4 10 10 10l134 0c6 0 11-4 11-10 0-6-5-11-11-11z"/>
<glyph unicode="&#57;" d="M413 0l-314 0c-55 0-99 44-99 99l0 314c0 55 44 99 99 99l314 0c55 0 99-44 99-99l0-314c0-55-44-99-99-99z m-314 491c-43 0-78-35-78-78l0-314c0-43 35-78 78-78l314 0c43 0 78 35 78 78l0 314c0 43-35 78-78 78z m17-403c-6 0-10 4-10 10l0 316c0 6 4 10 10 10 6 0 11-4 11-10l0-316c0-6-5-10-11-10z m140 0c-6 0-11 4-11 10l0 316c0 6 5 10 11 10 6 0 11-4 11-10l0-316c0-6-5-10-11-10z m140 0c-6 0-11 4-11 10l0 316c0 6 5 10 11 10 6 0 10-4 10-10l0-316c0-6-4-10-10-10z m-239 137l-81 0c-6 0-11 5-11 11 0 6 5 11 11 11l81 0c6 0 11-5 11-11 0-6-5-11-11-11z m279-82l-81 0c-6 0-11 5-11 11 0 6 5 11 11 11l81 0c6 0 11-5 11-11 0-6-5-11-11-11z m-139 154l-82 0c-5 0-10 5-10 11 0 6 5 11 10 11l82 0c5 0 10-5 10-11 0-6-5-11-10-11z"/>
<glyph unicode="&#33;" d="M394 0l-276 0c-30 0-54 24-54 54l0 404c0 30 24 54 54 54l276 0c30 0 54-24 54-54l0-404c0-30-24-54-54-54z m-276 491c-18 0-33-15-33-33l0-404c0-18 15-33 33-33l276 0c18 0 33 15 33 33l0 404c0 18-15 33-33 33z m138-361c-27 0-48 21-48 48 0 27 21 48 48 48 27 0 48-21 48-48 0-27-21-48-48-48z m0 75c-15 0-27-12-27-27 0-15 12-27 27-27 15 0 27 12 27 27 0 15-12 27-27 27z m0 134c-33 0-60 28-60 61 0 33 27 60 60 60 33 0 60-27 60-60 0-33-27-61-60-61z m0 100c-22 0-39-18-39-39 0-22 17-39 39-39 22 0 39 17 39 39 0 21-17 39-39 39z m0-387c-69 0-125 57-125 126 0 69 56 125 125 125 69 0 125-56 125-125 0-69-56-126-125-126z m0 230c-57 0-104-47-104-104 0-57 47-104 104-104 57 0 104 47 104 104 0 57-47 104-104 104z"/>
<glyph unicode="&#34;" d="M361 0l-210 0c-32 0-58 26-58 57l0 398c0 31 26 57 58 57l210 0c32 0 58-26 58-57l0-398c0-31-26-57-58-57z m-210 491c-20 0-36-16-36-36l0-398c0-20 16-36 36-36l210 0c20 0 36 16 36 36l0 398c0 20-16 36-36 36z m190-293l-169 0c-17 0-31 14-31 31l0 208c0 17 14 31 31 31l169 0c16 0 30-14 30-31l0-208c0-17-14-31-30-31z m-169 248c-6 0-10-4-10-9l0-208c0-6 4-10 10-10l169 0c5 0 9 4 9 10l0 208c0 5-4 9-9 9z m6-291l-10 0c-6 0-11 4-11 10 0 6 5 11 11 11l10 0c6 0 11-5 11-11 0-6-5-10-11-10z m83 0l-10 0c-6 0-11 4-11 10 0 6 5 11 11 11l10 0c6 0 11-5 11-11 0-6-5-10-11-10z m83 0l-10 0c-6 0-11 4-11 10 0 6 5 11 11 11l10 0c6 0 11-5 11-11 0-6-5-10-11-10z m-166-54l-10 0c-6 0-11 5-11 11 0 6 5 11 11 11l10 0c6 0 11-5 11-11 0-6-5-11-11-11z m83 0l-10 0c-6 0-11 5-11 11 0 6 5 11 11 11l10 0c6 0 11-5 11-11 0-6-5-11-11-11z m83 0l-10 0c-6 0-11 5-11 11 0 6 5 11 11 11l10 0c6 0 11-5 11-11 0-6-5-11-11-11z m-166-53l-10 0c-6 0-11 5-11 11 0 6 5 11 11 11l10 0c6 0 11-5 11-11 0-6-5-11-11-11z m83 0l-10 0c-6 0-11 5-11 11 0 6 5 11 11 11l10 0c6 0 11-5 11-11 0-6-5-11-11-11z m83 0l-10 0c-6 0-11 5-11 11 0 6 5 11 11 11l10 0c6 0 11-5 11-11 0-6-5-11-11-11z"/>
<glyph unicode="&#35;" d="M462 0l-411 0c-17 0-30 13-30 30l0 452c0 17 13 30 30 30l257 0c13 0 31-6 41-15l124-104c10-9 18-26 18-40l0-323c0-17-13-30-29-30z m-411 491c-5 0-9-4-9-9l0-452c0-5 4-9 9-9l411 0c4 0 8 4 8 9l0 323c0 8-5 19-11 24l-124 104c-6 5-19 10-27 10z m354-423l-304 0c-6 0-11 5-11 10l0 158c0 6 5 11 11 11l304 0c6 0 11-5 11-11l0-158c0-5-5-10-11-10z m-293 21l282 0 0 137-282 0z m-11 225c-6 0-11 5-11 11l0 121c0 6 5 11 11 11 6 0 11-5 11-11l0-121c0-6-5-11-11-11z m70 0c-6 0-11 5-11 11l0 121c0 6 5 11 11 11 6 0 10-5 10-11l0-121c0-6-4-11-10-11z m70 0c-6 0-11 5-11 11l0 121c0 6 5 11 11 11 5 0 10-5 10-11l0-121c0-6-5-11-10-11z m69 0c-5 0-10 5-10 11l0 121c0 6 5 11 10 11 6 0 11-5 11-11l0-121c0-6-5-11-11-11z"/>
<glyph unicode="&#36;" d="M440 0c-2 0-5 1-7 3l-177 177-177-177c-4-4-11-4-15 0l-61 61c-4 4-4 11 0 15l177 177-177 177c-4 4-4 11 0 15l61 61c4 4 11 4 15 0l177-177 177 177c2 2 5 3 7 3 3 0 6-1 8-3l61-61c4-4 4-11 0-15l-177-177 177-177c4-4 4-11 0-15l-61-61c-2-2-5-3-8-3z m-414 72l46-46 176 177c5 4 11 4 16 0l176-177 46 46-177 176c-4 5-4 11 0 16l177 176-46 46-176-177c-4-4-12-4-16 0l-176 177-46-46 177-176c4-5 4-11 0-16z"/>
<glyph unicode="&#37;" d="M272 86l-200 0c-40 0-72 32-72 72l0 283c0 40 32 72 72 72l283 0c39 0 71-32 71-72l0-144c0-6-4-11-10-11-6 0-11 5-11 11l0 144c0 28-22 50-50 50l-283 0c-28 0-51-22-51-50l0-283c0-28 23-50 51-50l200 0c6 0 11-5 11-11 0-6-5-11-11-11z m55 274l-228 0c-6 0-10 5-10 11l0 131c0 6 4 11 10 11l228 0c6 0 11-5 11-11l0-131c0-6-5-11-11-11z m-217 22l207 0 0 109-207 0z m-38-296c-6 0-10 5-10 11l0 224c0 5 4 10 10 10l282 0c6 0 11-5 11-10l0-26c0-6-5-11-11-11-6 0-10 5-10 11l0 15-261 0 0-213c0-6-5-11-11-11z m193 318c-6 0-11 5-11 11l0 43c0 6 5 11 11 11 6 0 10-5 10-11l0-43c0-6-4-11-10-11z m204-405l-163 0c-24 0-43 19-43 43l0 109c0 23 19 42 43 42l163 0c24 0 43-19 43-42l0-109c0-24-19-43-43-43z m-163 173c-12 0-22-10-22-21l0-109c0-12 10-21 22-21l163 0c12 0 22 9 22 21l0 109c0 11-10 21-22 21z m156 0c-6 0-11 5-11 11l0 45c0 35-28 64-63 64-11 0-20-2-29-7-22-11-35-32-35-57l0-45c0-6-5-11-11-11-6 0-10 5-10 11l0 45c0 33 18 62 46 76 12 6 25 9 39 9 46 0 84-38 84-85l0-45c0-6-4-11-10-11z m-49-64c0 14-12 25-25 25-14 0-26-11-26-25 0-11 7-20 16-24l0-39 19 0 0 39c9 4 16 13 16 24z"/>
<glyph unicode="&#38;" d="M469 126l-164 0c-24 0-43 19-43 42l0 109c0 23 19 42 43 42l164 0c24 0 43-19 43-42l0-109c0-23-19-42-43-42z m-164 172c-12 0-22-9-22-21l0-109c0-11 10-21 22-21l164 0c12 0 22 10 22 21l0 109c0 12-10 21-22 21z m7 0c-6 0-10 5-10 11l0 45c0 32 18 61 47 76 11 6 25 9 38 9 31 0 60-17 75-44 3-6 1-12-4-15-5-3-12-1-15 4-11 21-33 34-56 34-10 0-20-3-29-7-22-11-35-33-35-57l0-45c0-6-5-11-11-11z m100-64c0 14-11 25-25 25-14 0-25-11-25-25 0-11 6-20 16-23l0-40 18 0 0 40c10 3 16 12 16 23z m-71-234l-285 0c-31 0-56 25-56 56l0 400c0 31 25 56 56 56l285 0c31 0 57-25 57-56l0-28c0-6-5-10-11-10-6 0-11 4-11 10l0 28c0 19-15 35-35 35l-285 0c-19 0-35-16-35-35l0-400c0-19 16-35 35-35l285 0c20 0 35 16 35 35l0 80c0 6 5 11 11 11 6 0 11-5 11-11l0-80c0-31-26-56-57-56z m-1 95l-282 0c-6 0-11 5-11 11l0 343c0 6 5 11 11 11l282 0c6 0 10-5 10-11l0-38c0-5-4-10-10-10-6 0-11 5-11 10l0 27-260 0 0-322 260 0 0 20c0 6 5 11 11 11 6 0 10-5 10-11l0-30c0-6-4-11-10-11z m-120-48l-42 0c-6 0-11 5-11 11 0 5 5 10 11 10l42 0c5 0 10-5 10-10 0-6-5-11-10-11z"/>
<glyph unicode="&#39;" d="M412 131c-6 0-11 5-11 11l0 59c0 6 5 10 11 10 6 0 10-4 10-10l0-59c0-6-4-11-10-11z m0-39c-6 0-11 5-11 11l0 8c0 6 5 10 11 10 6 0 10-4 10-10l0-8c0-6-4-11-10-11z m0-38c-56 0-101 44-101 98 0 54 45 98 101 98 55 0 100-44 100-98 0-54-45-98-100-98z m0 175c-44 0-79-35-79-77 0-42 35-77 79-77 43 0 79 35 79 77 0 42-36 77-79 77z m-6-229l-395 0c-6 0-11 5-11 11l0 490c0 6 5 11 11 11l197 0c3 0 5-1 7-3l198-167c2-2 4-5 4-8l0-93c0-6-5-10-11-10-6 0-11 4-11 10l0 88-191 162-183 0 0-470 374 0 0 41c0 6 5 11 11 11 6 0 11-5 11-11l0-51c0-6-5-11-11-11z m0 324l-198 0c-6 0-10 4-10 10l0 157c0 6 4 10 10 10 6 0 11-4 11-10l0-146 187 0c6 0 11-5 11-11 0-6-5-10-11-10z m-139-83l-170 0c-5 0-10 5-10 11 0 6 5 11 10 11l170 0c6 0 11-5 11-11 0-6-5-11-11-11z m0-75l-170 0c-5 0-10 4-10 10 0 6 5 11 10 11l170 0c6 0 11-5 11-11 0-6-5-10-11-10z m0-76l-170 0c-5 0-10 5-10 11 0 5 5 10 10 10l170 0c6 0 11-5 11-10 0-6-5-11-11-11z"/>
<glyph unicode="&#40;" d="M29 154c-5 0-10 2-13 3-10 6-16 18-16 34l0 284c0 16 6 28 16 34 6 3 18 7 34-4l155-101c5-3 6-10 3-15-3-5-10-6-15-3l-154 101c-5 3-10 4-12 3-3-1-6-6-6-15l0-284c0-9 3-14 6-15 2-1 7 0 12 3l154 101c5 3 12 2 15-3 3-5 2-12-3-15l-155-101c-8-5-15-7-21-7z m454 0c-6 0-13 2-21 7l-155 101c-5 3-6 10-3 15 3 5 10 6 15 3l154-101c5-3 10-4 12-3 3 1 6 6 6 15l0 284c0 9-3 14-6 15-2 1-7 0-12-3l-154-101c-5-3-12-2-15 3-3 5-2 12 3 15l155 101c16 11 28 7 34 4 10-6 16-18 16-34l0-284c0-16-6-28-16-34-3-1-8-3-13-3z m-196 91l-62 0c-22 0-41 25-41 55l0 66c0 30 23 55 50 55l44 0c27 0 50-25 50-55l0-66c0-30-19-55-41-55z m-53 154c-16 0-28-15-28-33l0-66c0-20 10-33 19-33l62 0c9 0 19 13 19 33l0 66c0 18-12 33-28 33z m22-399c-6 0-11 5-11 11l0 239c0 6 5 11 11 11 6 0 11-5 11-11l0-239c0-6-5-11-11-11z m82 0l-164 0c-6 0-11 5-11 11 0 6 5 10 11 10l164 0c6 0 11-4 11-10 0-6-5-11-11-11z"/>
<glyph unicode="&#41;" d="M408 12c-2 0-4 1-6 2l-146 92-146-92c-4-3-8-3-12 0-3 3-5 7-4 11l42 167-132 111c-4 3-5 7-3 11 1 5 5 7 9 8l172 11 64 160c2 4 6 7 10 7 4 0 8-3 10-7l64-160 172-11c4-1 8-3 9-8 2-4 1-8-3-11l-132-111 41-165c1-1 2-3 2-4 0-6-5-11-11-11 0 0 0 0 0 0z m-152 117c2 0 4-1 6-2l129-81-38 148c-1 4 1 8 4 11l117 97-152 10c-4 1-8 3-9 7l-57 142-57-142c-1-4-5-6-9-7l-152-10 117-97c3-3 5-7 4-11l-38-148 129 81c2 1 4 2 6 2z"/>
<glyph unicode="&#42;" d="M202 313c-2 0-5 1-7 3l-108 107c-2 2-3 5-3 8 0 3 1 5 3 7l71 71c4 4 11 4 15 0l107-108c4-4 4-10 0-15l-70-70c-2-2-5-3-8-3z m-92 118l92-92 56 55-93 92z m321-347c-3 0-6 1-8 3l-107 108c-2 2-3 4-3 7 0 3 1 6 3 8l70 70c5 4 11 4 15 0l108-107c4-4 4-11 0-15l-71-71c-2-2-4-3-7-3z m-92 118l92-92 55 55-92 93z m-148-165c-1 0-2 0-3 0-4 1-7 4-8 8-6 29-24 60-50 85-25 26-56 44-85 50-4 1-7 4-8 8-1 4 0 8 3 11 22 21 51 33 81 33 19 0 38-5 54-15l2 2-28 28c-11 10-10 28 0 39l131 131c11 10 29 10 39 0l98-98c10-11 10-28 0-39l-131-131c-11-10-29-10-39 0l-28 28-2-2c25-43 17-98-18-135-3-2-5-3-8-3z m-121 158c26-10 52-27 75-50 23-23 40-49 50-75 20 31 20 71 0 101-3 4-2 10 1 13l15 15c5 5 11 5 16 0l35-35c1-1 3-1 4-1 2 0 3 0 5 1l131 131c2 3 2 7 0 9l-98 98c-1 1-3 1-4 1-2 0-3 0-5-1l-131-131c-2-3-2-7 0-9l35-35c2-2 4-5 4-8 0-3-2-5-4-7l-15-16c-3-3-9-4-13-1-30 20-71 20-101 0z m65-98c-10 0-20 4-27 11-14 15-14 39 1 54 4 4 11 4 15 0 4-4 4-11 0-15-7-7-7-17-1-24 4-3 8-4 12-4 5 0 9 2 12 5 4 4 11 4 15 0 4-4 4-11 0-15-7-7-17-11-27-12 0 0 0 0 0 0z m247 236c-3 0-6 1-8 3-4 4-4 11 0 15 7 7 7 17 1 24-3 3-7 4-12 4 0 0 0 0 0 0-4 0-9-1-12-5-4-4-11-4-15 0-4 4-4 11 0 15 7 8 17 12 27 12 10 0 20-4 27-11 15-15 14-39-1-54-2-2-4-3-7-3z m-248-268c-18 0-36 7-49 20-13 13-20 31-20 50 0 6 5 10 11 10 6 0 11-4 11-10-1-13 4-26 13-35 10-9 22-13 35-13 6 0 10-5 10-11 1-6-4-11-10-11 0 0-1 0-1 0z m-1-32c-27 0-52 10-71 29-19 19-29 45-29 73 0 5 5 10 11 10 0 0 0 0 0 0 6 0 11-5 10-11 0-21 8-42 23-57 15-15 36-23 57-23 6 0 11-4 11-10 0-6-5-11-10-11-1 0-1 0-2 0z m-1-33c-35 0-68 14-93 39-26 25-39 59-39 95 0 6 5 11 11 11 0 0 0 0 0 0 6 0 10-5 10-11 0-31 11-59 33-80 21-22 50-33 80-33 6 0 11-4 11-10 0-6-5-11-11-11 0 0-1 0-2 0z"/>
<glyph unicode="&#43;" d="M393 0l-274 0c-36 0-64 29-64 64l0 183c0 35 28 64 64 64l274 0c36 0 64-29 64-64l0-183c0-17-6-33-18-45-13-12-29-19-46-19z m-274 290c-24 0-43-20-43-43l0-183c0-23 19-43 43-43l274 0c24 0 43 20 43 43l0 183c0 23-19 43-43 43z m13 0c-6 0-11 4-11 10l0 77c0 74 60 135 135 135 74 0 135-61 135-135 0-6-5-11-11-11-5 0-10 5-10 11 0 63-51 114-114 114-63 0-114-51-114-114l0-77c0-6-5-10-10-10z m166-116c0 24-19 43-42 43-23 0-42-19-42-43 0-17 11-32 26-39l0-66 32 0 0 66c15 7 26 22 26 39z"/>
<glyph unicode="&#44;" d="M272 87l-200 0c-39 0-71 32-71 71l0 283c0 39 32 71 71 71l282 0c40 0 72-32 72-71l0-144c0-6-5-11-11-11-6 0-10 5-10 11l0 144c0 27-23 50-51 50l-282 0c-27 0-50-23-50-50l0-283c0-27 23-50 50-50l200 0c6 0 11-5 11-11 0-5-5-10-11-10z m55 273l-227 0c-6 0-11 5-11 11l0 130c0 6 5 11 11 11l227 0c6 0 11-5 11-11l0-130c0-6-5-11-11-11z m-217 21l206 0 0 110-206 0z m-37-294c-6 0-11 5-11 10l0 223c0 6 5 11 11 11l281 0c6 0 11-5 11-11l0-25c0-6-5-11-11-11-6 0-11 5-11 11l0 15-259 0 0-213c0-5-5-10-11-10z m192 317c-6 0-11 4-11 10l0 44c0 5 5 10 11 10 6 0 10-5 10-10l0-44c0-6-4-10-10-10z m204-404l-163 0c-24 0-43 19-43 43l0 108c0 24 19 43 43 43l163 0c23 0 42-19 42-43l0-108c0-12-4-22-12-30-8-9-19-13-30-13z m-163 172c-12 0-22-9-22-21l0-108c0-12 10-22 22-22l163 0c11 0 21 10 21 22l0 108c0 12-10 21-21 21z m7 0c-6 0-11 5-11 11l0 45c0 33 18 62 47 76 12 6 25 9 38 9 28 0 55-14 70-37 4-5 2-12-3-15-4-3-11-2-14 3-12 17-32 28-53 28-10 0-19-2-28-7-22-11-35-32-35-57l0-45c0-6-5-11-11-11z m99-64c0 14-11 25-25 25-14 0-25-11-25-25 0-10 7-19 16-23l0-40 18 0 0 40c10 4 16 13 16 23z"/>
<glyph unicode="&#45;" d="M355 0l-198 0c-32 0-58 26-58 58l0 396c0 16 6 30 17 41 11 11 26 17 41 17l198 0c32 0 58-26 58-58l0-396c0-32-26-58-58-58z m-198 491c-10 0-19-4-26-11-7-7-10-16-10-26l0-396c0-20 16-37 36-37l198 0c20 0 36 17 36 37l0 396c0 20-16 37-36 37z m208-158l-218 0c-6 0-10 5-10 11l0 87c0 6 4 11 10 11l218 0c6 0 10-5 10-11l0-87c0-6-4-11-10-11z m-207 22l196 0 0 65-196 0z m196-215l-185 0c-6 0-11 5-11 11 0 6 5 11 11 11l185 0c6 0 11-5 11-11 0-6-5-11-11-11z m0-59l-185 0c-6 0-11 5-11 10 0 6 5 11 11 11l185 0c6 0 11-5 11-11 0-5-5-10-11-10z m-176 156c-6 0-11 5-11 11l0 35c0 6 5 11 11 11 6 0 10-5 10-11l0-35c0-6-4-11-10-11z m51 0c-6 0-11 5-11 11l0 35c0 6 5 11 11 11 5 0 10-5 10-11l0-35c0-6-5-11-10-11z"/>
<glyph unicode="&#46;" d="M117 0c-32 0-58 15-68 38-5 14-5 30 1 44 10 21 29 38 54 47 12 4 24 6 36 6 32 0 58-14 68-38 5-14 5-29-2-44-9-21-28-37-53-46-12-5-24-7-36-7z m23 114c-9 0-19-2-29-5-19-7-34-20-41-35-3-7-5-17-1-28 6-15 25-25 48-25 9 0 19 2 29 6 19 7 34 20 41 35 3 6 5 16 1 27-6 15-25 25-48 25z m232-6c-32 0-58 14-68 38-5 14-5 29 2 44 9 20 28 37 53 46 12 5 24 7 36 7 32 0 58-15 68-38 5-14 5-30-1-44-10-21-29-38-54-47-12-4-24-6-36-6z m23 114c-9 0-19-2-29-6-19-7-34-20-41-35-3-6-5-16-1-27 6-15 25-25 48-25 9 0 19 2 29 5 19 7 34 20 41 35 3 7 5 17 1 28-6 15-25 25-48 25z m-194-165c-6 0-11 5-11 11l0 312c0 4 3 8 7 10l255 121c3 2 7 1 10-1 3-2 5-5 5-9l0-314c0-5-5-10-11-10-6 0-11 5-11 10l0 297-233-111 0-305c0-6-5-11-11-11z m0 217c-4 0-8 2-9 6-3 5-1 11 4 14l255 128c6 3 12 1 15-4 2-6 0-12-5-15l-255-128c-2-1-3-1-5-1z"/>
<glyph unicode="&#47;" d="M11 376c-6 0-11 5-11 11l0 114c0 6 5 11 11 11l114 0c6 0 11-5 11-11 0-6-5-10-11-10l-104 0 0-104c0-6-4-11-10-11z m490 0c-6 0-10 5-10 11l0 104-104 0c-6 0-11 4-11 10 0 6 5 11 11 11l114 0c6 0 11-5 11-11l0-114c0-6-5-11-11-11z m0-376l-114 0c-6 0-11 5-11 11 0 6 5 10 11 10l104 0 0 104c0 6 4 11 10 11 6 0 11-5 11-11l0-114c0-6-5-11-11-11z m-376 0l-114 0c-6 0-11 5-11 11l0 114c0 6 5 11 11 11 6 0 10-5 10-11l0-104 104 0c6 0 11-4 11-10 0-6-5-11-11-11z m131 8c-137 0-248 111-248 248 0 137 111 248 248 248 137 0 248-111 248-248 0-137-111-248-248-248z m0 475c-125 0-227-102-227-227 0-125 102-227 227-227 125 0 227 102 227 227 0 125-102 227-227 227z m0-42c-6 0-11 5-11 11l0 39c0 6 5 11 11 11 6 0 11-5 11-11l0-39c0-6-5-11-11-11z m0-431c-6 0-11 5-11 11l0 39c0 6 5 11 11 11 6 0 11-5 11-11l0-39c0-6-5-11-11-11z m235 235l-39 0c-6 0-11 5-11 11 0 6 5 11 11 11l39 0c6 0 11-5 11-11 0-6-5-11-11-11z m-431 0l-39 0c-6 0-11 5-11 11 0 6 5 11 11 11l39 0c6 0 11-5 11-11 0-6-5-11-11-11z m196-51c-34 0-62 28-62 62 0 34 28 62 62 62 34 0 62-28 62-62 0-34-28-62-62-62z m0 103c-22 0-41-19-41-41 0-22 19-41 41-41 22 0 41 19 41 41 0 22-19 41-41 41z"/>
<glyph unicode="&#58;" d="M393 0l-274 0c-36 0-64 29-64 64l0 183c0 35 28 64 64 64l274 0c36 0 64-29 64-64l0-183c0-17-6-33-18-45-13-12-29-19-46-19z m-274 290c-24 0-43-20-43-43l0-183c0-23 19-43 43-43l274 0c24 0 43 20 43 43l0 183c0 23-19 43-43 43z m261 0c-5 0-10 4-10 10l0 77c0 63-51 114-114 114-63 0-114-51-114-114l0-77c0-6-5-10-10-10-6 0-11 4-11 10l0 77c0 74 60 135 135 135 75 0 135-61 135-135l0-77c0-6-5-10-11-10z m-82-116c0 24-19 43-42 43-23 0-42-19-42-43 0-17 11-32 26-39l0-66 32 0 0 66c15 7 26 22 26 39z"/>
<glyph unicode="&#59;" d="M466 0l-218 0c-26 0-46 21-46 46l0 172c0 6 5 11 11 11 6 0 10-5 10-11l0-172c0-14 11-25 25-25l218 0c14 0 25 11 25 25l0 311c0 13-11 24-25 24l-80 0c-6 0-11 5-11 11 0 6 5 11 11 11l80 0c26 0 46-21 46-46l0-311c0-25-20-46-46-46z m-1 74l-216 0c-6 0-11 5-11 10l0 128c0 6 5 11 11 11 6 0 11-5 11-11l0-117 194 0 0 246-61 0c-5 0-10 4-10 10 0 6 5 11 10 11l72 0c6 0 11-5 11-11l0-267c0-5-5-10-11-10z m-92-38l-32 0c-6 0-11 5-11 11 0 6 5 11 11 11l32 0c6 0 11-5 11-11 0-6-5-11-11-11z m17 126c-1 0-2 0-3 1l-167 49c-7-1-13-1-20-1-110 0-200 67-200 150 0 83 90 151 200 151 111 0 201-68 201-151 0-3 0-6-1-10-3-42-31-82-76-108l73-62c4-3 5-9 3-13-2-4-6-6-10-6z m-169 71c1 0 2 0 3 0l121-36-46 40c-3 2-5 6-4 9 0 4 3 7 6 9 45 22 75 59 78 98 0 3 1 6 1 8 0 72-81 130-180 130-98 0-179-58-179-130 0-71 81-129 179-129 7 0 13 0 20 1 1 0 1 0 1 0z"/>
<glyph unicode="&#60;" d="M477 36l-301 0c-20 0-35 19-35 41l0 242c0 23 15 41 35 41l301 0c19 0 35-18 35-41l0-242c0-22-16-41-35-41z m-301 303c-8 0-14-9-14-20l0-242c0-10 6-20 14-20l301 0c7 0 14 10 14 20l0 242c0 11-7 20-14 20z m-83-303l-57 0c-20 0-36 16-36 37l0 251c0 20 16 36 36 36l57 0c20 0 36-16 36-36l0-251c0-10-4-19-10-26-7-7-16-11-26-11z m-57 303c-8 0-15-7-15-15l0-251c0-9 7-16 15-16l57 0c8 0 15 7 15 16l0 251c0 8-7 15-15 15z m230-163l-33 0c-6 0-10 5-10 11 0 5 4 10 10 10l33 0c6 0 10-5 10-10 0-6-4-11-10-11z m76 0l-32 0c-6 0-11 5-11 11 0 5 5 10 11 10l32 0c6 0 11-5 11-10 0-6-5-11-11-11z m77 0l-32 0c-6 0-11 5-11 11 0 5 5 10 11 10l32 0c6 0 11-5 11-10 0-6-5-11-11-11z m-153-43l-33 0c-6 0-10 5-10 11 0 6 4 10 10 10l33 0c6 0 10-4 10-10 0-6-4-11-10-11z m76 0l-32 0c-6 0-11 5-11 11 0 6 5 10 11 10l32 0c6 0 11-4 11-10 0-6-5-11-11-11z m77 0l-32 0c-6 0-11 5-11 11 0 6 5 10 11 10l32 0c6 0 11-4 11-10 0-6-5-11-11-11z m-153-43l-33 0c-6 0-10 5-10 11 0 6 4 10 10 10l33 0c6 0 10-4 10-10 0-6-4-11-10-11z m76 0l-32 0c-6 0-11 5-11 11 0 6 5 10 11 10l32 0c6 0 11-4 11-10 0-6-5-11-11-11z m77 0l-32 0c-6 0-11 5-11 11 0 6 5 10 11 10l32 0c6 0 11-4 11-10 0-6-5-11-11-11z m26 147c-6 0-11 5-11 11l0 37-226 0c-6 0-11 4-11 10 0 6 5 11 11 11l237 0c5 0 10-5 10-11l0-47c0-6-5-11-10-11z m-7 102l-224 0c-6 0-10 4-10 10l0 152c0 6 4 11 10 11l224 0c6 0 11-5 11-11l0-152c0-6-5-10-11-10z m-213 21l203 0 0 131-203 0z m207-360l-211 0c-6 0-11 5-11 11 0 6 5 10 11 10l211 0c6 0 11-4 11-10 0-6-5-11-11-11z m-40 392l-132 0c-6 0-11 5-11 10 0 6 5 11 11 11l132 0c6 0 11-5 11-11 0-5-5-10-11-10z m0 50l-132 0c-6 0-11 5-11 11 0 6 5 10 11 10l132 0c6 0 11-4 11-10 0-6-5-11-11-11z"/>
<glyph unicode="&#61;" d="M256 306c-29 0-52 23-52 52 0 29 23 52 52 52 29 0 52-23 52-52 0-29-23-52-52-52z m0 83c-17 0-31-14-31-31 0-17 14-31 31-31 17 0 31 14 31 31 0 17-14 31-31 31z m81-238l-162 0c-6 0-11 4-11 10l0 56c0 48 40 87 88 87l8 0c48 0 88-39 88-87l0-56c0-6-5-10-11-10z m-151 21l140 0 0 45c0 36-29 66-66 66l-8 0c-37 0-66-30-66-66z m232-172l-324 0c-25 0-45 20-45 46l0 420c0 26 20 46 45 46l324 0c25 0 45-20 45-46l0-420c0-26-20-46-45-46z m-324 491c-13 0-24-11-24-25l0-420c0-14 11-25 24-25l324 0c13 0 24 11 24 25l0 420c0 14-11 25-24 25z m304-378l-284 0c-6 0-11 5-11 11l0 313c0 6 5 11 11 11l284 0c6 0 11-5 11-11l0-313c0-6-5-11-11-11z m-273 22l262 0 0 291-262 0z m177-80l-92 0c-6 0-11 5-11 11 0 6 5 10 11 10l92 0c6 0 11-4 11-10 0-6-5-11-11-11z"/>
<glyph unicode="&#62;" d="M466 0l-218 0c-26 0-46 21-46 46l0 172c0 6 5 11 11 11 6 0 10-5 10-11l0-172c0-14 11-25 25-25l218 0c14 0 25 11 25 25l0 311c0 13-11 24-25 24l-80 0c-6 0-11 5-11 11 0 6 5 11 11 11l80 0c26 0 46-21 46-46l0-311c0-25-20-46-46-46z m-1 74l-216 0c-6 0-11 5-11 10l0 128c0 6 5 11 11 11 6 0 11-5 11-11l0-117 194 0 0 246-61 0c-5 0-10 4-10 10 0 6 5 11 10 11l72 0c6 0 11-5 11-11l0-267c0-5-5-10-11-10z m-92-38l-32 0c-6 0-11 5-11 11 0 6 5 11 11 11l32 0c6 0 11-5 11-11 0-6-5-11-11-11z m17 126c-1 0-2 0-3 1l-167 49c-7-1-13-1-20-1-110 0-200 67-200 150 0 83 90 151 200 151 111 0 201-68 201-151 0-3 0-6-1-10-3-42-31-82-76-108l73-62c4-3 5-9 3-13-2-4-6-6-10-6z m-169 71c1 0 2 0 3 0l121-36-46 40c-3 2-5 6-4 9 0 4 3 7 6 9 45 22 75 59 78 98 0 3 1 6 1 8 0 72-81 130-180 130-98 0-179-58-179-130 0-71 81-129 179-129 7 0 13 0 20 1 1 0 1 0 1 0z m-126 101c5-3 12-6 20-6 11 0 18 6 18 15 0 8-5 13-16 17-14 5-23 12-23 24 0 13 11 23 28 23 9 0 15-2 19-4l-3-9c-3 2-9 4-17 4-11 0-16-7-16-13 0-8 6-11 17-16 15-6 22-13 22-25 0-13-10-25-30-25-8 0-17 3-22 6z m136 24c-1 12-1 26-1 37l-1 0c-2-10-6-21-10-33l-15-41-9 0-14 41c-4 12-7 23-9 33l-1 0c0-11-1-25-1-38l-3-36-10 0 6 85 14 0 14-41c4-11 7-20 9-29l0 0c3 9 6 18 9 29l16 41 14 0 5-85-11 0z m29-24c4-3 12-6 19-6 12 0 18 6 18 15 0 8-4 13-16 17-14 5-23 12-23 24 0 13 12 23 28 23 9 0 15-2 19-4l-3-9c-3 2-9 4-16 4-12 0-16-7-16-13 0-8 5-11 17-16 14-6 21-13 21-25 0-13-9-25-30-25-8 0-17 3-21 6z"/>
<glyph unicode="&#63;" d="M450 0l-388 0c-6 0-11 5-11 11l0 390c0 2 1 5 2 7l84 100c2 3 5 4 8 4l305 0c6 0 11-5 11-11l0-104c0-6-5-10-11-10l-24 0 0-99 24 0c6 0 11-5 11-11l0-266c0-6-5-11-11-11z m-378 21l368 0 0 246-24 0c-6 0-11 4-11 10l0 120c0 6 5 11 11 11l24 0 0 83-290 0-78-94z m266 352c-5 0-10 5-10 11l0 75c0 6 5 10 10 10 6 0 11-4 11-10l0-75c0-6-5-11-11-11z m-66 0c-6 0-11 5-11 11l0 75c0 6 5 10 11 10 6 0 10-4 10-10l0-75c0-6-4-11-10-11z m-67 0c-6 0-11 5-11 11l0 75c0 6 5 10 11 10 6 0 11-4 11-10l0-75c0-6-5-11-11-11z m-67 0c-5 0-10 5-10 11l0 61c0 6 5 11 10 11 6 0 11-5 11-11l0-61c0-6-5-11-11-11z m224-186l-217 0c-6 0-10 4-10 10 0 6 4 11 10 11l217 0c6 0 11-5 11-11 0-6-5-10-11-10z m0-59l-217 0c-6 0-10 5-10 11 0 6 4 10 10 10l217 0c6 0 11-4 11-10 0-6-5-11-11-11z m0-59l-217 0c-6 0-10 5-10 11 0 6 4 11 10 11l217 0c6 0 11-5 11-11 0-6-5-11-11-11z"/>
<glyph unicode="&#64;" d="M426 131l-340 0c-31 0-56 28-56 63l0 254c0 35 25 64 56 64l340 0c31 0 56-29 56-64l0-254c0-35-25-63-56-63z m-340 360c-19 0-34-19-34-43l0-254c0-23 15-42 34-42l340 0c19 0 35 19 35 42l0 254c0 24-16 43-35 43z m415-491l-490 0c-6 0-11 5-11 11l0 131c0 5 5 10 11 10l490 0c6 0 11-5 11-10l0-131c0-6-5-11-11-11z m-480 21l470 0 0 110-470 0z m143 156l-71 0c-6 0-10 5-10 11 0 5 4 10 10 10l71 0c6 0 11-5 11-10 0-6-5-11-11-11z m0 45l-71 0c-6 0-10 4-10 10 0 6 4 11 10 11l71 0c6 0 11-5 11-11 0-6-5-10-11-10z m0 44l-71 0c-6 0-10 5-10 11 0 6 4 10 10 10l71 0c6 0 11-4 11-10 0-6-5-11-11-11z m128-89l-71 0c-6 0-11 5-11 11 0 5 5 10 11 10l71 0c5 0 10-5 10-10 0-6-5-11-10-11z m0 45l-71 0c-6 0-11 4-11 10 0 6 5 11 11 11l71 0c5 0 10-5 10-11 0-6-5-10-10-10z m0 44l-71 0c-6 0-11 5-11 11 0 6 5 10 11 10l71 0c5 0 10-4 10-10 0-6-5-11-10-11z m0 45l-71 0c-6 0-11 5-11 10 0 6 5 11 11 11l71 0c5 0 10-5 10-11 0-5-5-10-10-10z m0 44l-71 0c-6 0-11 5-11 11 0 6 5 11 11 11l71 0c5 0 10-5 10-11 0-6-5-11-10-11z m0 45l-71 0c-6 0-11 5-11 11 0 6 5 10 11 10l71 0c5 0 10-4 10-10 0-6-5-11-10-11z m0 45l-71 0c-6 0-11 4-11 10 0 6 5 11 11 11l71 0c5 0 10-5 10-11 0-6-5-10-10-10z m127-268l-71 0c-6 0-11 5-11 11 0 5 5 10 11 10l71 0c6 0 10-5 10-10 0-6-4-11-10-11z m0 45l-71 0c-6 0-11 4-11 10 0 6 5 11 11 11l71 0c6 0 10-5 10-11 0-6-4-10-10-10z m0 44l-71 0c-6 0-11 5-11 11 0 6 5 10 11 10l71 0c6 0 10-4 10-10 0-6-4-11-10-11z m0 45l-71 0c-6 0-11 5-11 10 0 6 5 11 11 11l71 0c6 0 10-5 10-11 0-5-4-10-10-10z m-100-246l-126 0c-6 0-11 5-11 11 0 6 5 11 11 11l126 0c6 0 11-5 11-11 0-6-5-11-11-11z"/>
<glyph unicode="&#91;" d="M434 172l-356 0c-6 0-10 4-11 10 0 2 0 3 0 5l0 202c0 22 17 41 38 41l60 0c6 0 11-5 11-11 0-6-5-11-11-11l-60 0c-9 0-17-9-17-19l0-195 336 0 0 195c0 10-8 19-17 19l-60 0c-6 0-11 5-11 11 0 6 5 11 11 11l60 0c21 0 38-19 38-41l0-202c0-2 0-3 0-5-1-5-6-10-11-10z m-128-119l-100 0c-6 0-11 5-11 11 0 6 5 10 11 10l100 0c6 0 11-4 11-10 0-6-5-11-11-11z m195-53l-490 0c-6 0-11 5-11 11l0 37c0 2 0 4 1 5l67 135c2 3 5 6 10 6l356 0c5 0 8-3 10-6l67-135c1-1 1-3 1-5l0-37c0-6-5-11-11-11z m-480 21l470 0 0 25-63 126-344 0-63-126z m235 193c-3 0-7 1-9 4-9 14-93 135-93 189 0 58 46 105 102 105 56 0 102-47 102-105 0-54-84-175-93-189-2-3-6-4-9-4z m0 277c-44 0-80-38-80-84 0-36 51-121 80-164 29 43 80 128 80 164 0 46-36 84-80 84z m0-145c-32 0-58 27-58 61 0 33 26 60 58 60 32 0 58-27 58-60 0-34-26-61-58-61z m0 100c-20 0-37-18-37-39 0-22 17-39 37-39 20 0 37 17 37 39 0 21-17 39-37 39z"/>
<glyph unicode="&#93;" d="M287 0l-224 0c-35 0-63 28-63 63l0 386c0 35 28 63 63 63l224 0c35 0 64-28 64-63l0-386c0-35-29-63-64-63z m-224 491c-23 0-42-19-42-42l0-386c0-23 19-42 42-42l224 0c24 0 43 19 43 42l0 386c0 23-19 42-43 42z m222-235l-219 0c-6 0-11 5-11 11l0 171c0 6 5 11 11 11l219 0c6 0 11-5 11-11l0-171c0-6-5-11-11-11z m-209 22l198 0 0 150-198 0z m99-237c-50 0-91 41-91 92 0 50 41 91 91 91 51 0 92-41 92-91 0-51-41-92-92-92z m0 161c-38 0-70-31-70-70 0-38 32-69 70-69 39 0 70 31 70 69 0 39-31 70-70 70z m268-22c-2 0-5 1-7 3-4 4-4 11 0 15 35 35 55 82 55 132 0 50-20 97-55 132-4 4-4 11 0 15 4 4 11 4 15 0 39-39 61-91 61-147 0-56-22-108-61-147-2-2-5-3-8-3z m-48 48c-2 0-5 1-7 3-4 4-4 11 0 15 22 22 34 52 34 84 0 32-12 61-34 84-4 4-4 11 0 15 4 4 11 4 15 0 26-27 41-62 41-99 0-37-15-73-41-99-2-2-5-3-8-3z"/>
<glyph unicode="&#94;" d="M256 0c-141 0-256 115-256 256 0 141 115 256 256 256 141 0 256-115 256-256 0-141-115-256-256-256z m0 491c-129 0-235-106-235-235 0-129 106-235 235-235 129 0 235 106 235 235 0 129-106 235-235 235z m0-491c-85 0-154 115-154 256 0 141 69 256 154 256 85 0 154-115 154-256 0-141-69-256-154-256z m0 491c-73 0-133-106-133-235 0-129 60-235 133-235 73 0 133 106 133 235 0 129-60 235-133 235z m0-491c-6 0-11 5-11 11l0 490c0 6 5 11 11 11 6 0 11-5 11-11l0-490c0-6-5-11-11-11z m245 245l-490 0c-6 0-11 5-11 11 0 6 5 11 11 11l490 0c6 0 11-5 11-11 0-6-5-11-11-11z m-36 119l-418 0c-6 0-11 5-11 11 0 6 5 11 11 11l418 0c6 0 11-5 11-11 0-6-5-11-11-11z m0-238l-418 0c-6 0-11 5-11 11 0 6 5 11 11 11l418 0c6 0 11-5 11-11 0-6-5-11-11-11z"/>
<glyph unicode="&#95;" d="M82 103c-1 0-2 0-2 0-3 0-6 2-7 4l-71 111c-3 5-2 11 3 15l58 39-20 32c-4 5-2 12 3 15l279 191c2 2 5 2 8 2 3-1 5-2 7-5l123-191c3-5 2-12-3-15l-279-191c-3-2-6-2-8-2-3 1-6 2-7 5l-20 31-58-40c-2-1-4-1-6-1z m-57 118l60-93 58 40c2 2 5 2 8 2 3-1 5-3 7-5l20-31 261 179-111 173-262-179 21-32c3-5 1-11-3-14z m476-221c-1 0-2 0-3 1l-139 52c-3 1-6 4-7 7l-40 153c-1 6 2 12 8 13 6 2 12-2 13-8l39-147 133-50c6-2 8-9 6-14-1-4-5-7-10-7z m-190 358c-4 0-7 1-9 5l-21 30c-3 5-2 12 3 15 5 3 12 2 15-3l21-31c3-5 1-11-3-14-2-2-4-2-6-2z"/>
<glyph unicode="&#96;" d="M466 0l-218 0c-26 0-46 21-46 46l0 172c0 6 5 11 11 11 6 0 10-5 10-11l0-172c0-14 11-25 25-25l218 0c14 0 25 11 25 25l0 311c0 13-11 24-25 24l-80 0c-6 0-11 5-11 11 0 6 5 11 11 11l80 0c26 0 46-21 46-46l0-311c0-25-20-46-46-46z m-1 74l-216 0c-6 0-11 5-11 10l0 128c0 6 5 11 11 11 6 0 11-5 11-11l0-117 194 0 0 246-61 0c-5 0-10 4-10 10 0 6 5 11 10 11l72 0c6 0 11-5 11-11l0-267c0-5-5-10-11-10z m-92-38l-32 0c-6 0-11 5-11 11 0 6 5 11 11 11l32 0c6 0 11-5 11-11 0-6-5-11-11-11z m17 126c-1 0-2 0-3 1l-167 49c-7-1-13-1-20-1-110 0-200 67-200 150 0 83 90 151 200 151 111 0 201-68 201-151 0-3 0-6-1-10-3-42-31-82-76-108l73-62c4-3 5-9 3-13-2-4-6-6-10-6z m-169 71c1 0 2 0 3 0l121-36-46 40c-3 2-5 6-4 9 0 4 3 7 6 9 45 22 75 59 78 98 0 3 1 6 1 8 0 72-81 130-180 130-98 0-179-58-179-130 0-71 81-129 179-129 7 0 13 0 20 1 1 0 1 0 1 0z m-79 125c-1 12-1 26-1 37l-1 0c-3-10-6-21-10-33l-15-41-9 0-14 41c-4 12-7 23-9 33l-1 0c0-11-1-25-1-38l-3-36-10 0 6 85 14 0 14-41c4-11 7-20 9-29l0 0c3 8 6 18 9 29l16 41 14 0 5-85-11 0z m102 0c-1 12-2 26-1 37l-1 0c-3-10-6-21-11-33l-15-41-8 0-14 41c-4 12-7 23-10 33l0 0c0-11-1-25-2-38l-2-36-10 0 6 85 14 0 14-41c4-11 7-20 9-29l0 0c2 8 5 18 9 29l15 41 14 0 6-85-11 0z m28-24c5-3 12-6 20-6 11 0 18 6 18 15 0 8-5 12-16 17-14 5-23 12-23 24 0 13 11 23 28 23 9 0 15-2 19-4l-3-9c-3 2-9 4-17 4-11 0-16-7-16-13 0-8 6-12 17-16 15-6 22-13 22-25 0-13-10-25-30-25-8 0-17 3-22 6z"/>
<glyph unicode="&#123;" d="M337 33l-231 0c-34 0-61 27-61 61l0 357c0 34 27 61 61 61l267 0c34 0 61-27 61-61l0-257c0-6-4-10-10-10-6 0-11 4-11 10l0 257c0 22-18 40-40 40l-267 0c-22 0-40-18-40-40l0-357c0-22 18-40 40-40l231 0c6 0 11-4 11-10 0-6-5-11-11-11z m-75 67l-163 0c-6 0-11 5-11 11l0 332c0 6 5 11 11 11l281 0c6 0 11-5 11-11l0-220c0-6-5-11-11-11-5 0-10 5-10 11l0 209-261 0 0-311 153 0c6 0 10-5 10-10 0-6-4-11-10-11z m17 36c-5 0-9 3-10 7l-44 106c-7 16 0 34 15 40 7 3 15 3 22 0 8-3 14-9 17-17l39-93c2-5 0-11-6-14-5-2-12 1-14 6l-38 93c-2 2-4 4-6 5-1 1-4 1-6 0-4-1-6-7-4-12l44-106c3-5 0-12-5-14-2 0-3-1-4-1z m29 29c-4 0-8 2-10 6l-17 41c-7 16 0 34 15 41 7 3 15 3 22 0 8-3 14-10 17-18l20-46c2-5 0-12-6-14-5-2-12 0-14 6l-19 46c-1 3-3 5-6 6-1 1-3 1-6 0-4-2-6-7-4-12l18-42c2-5-1-11-6-14-1 0-3 0-4 0z m37 9c-4 0-8 3-10 7l-11 28c-7 16 0 34 15 40 7 3 15 3 22 0 8-3 14-9 17-17l17-40c2-6 0-12-6-14-5-3-11 0-14 5l-16 41c-1 2-4 4-6 5-1 1-4 1-6 1-4-2-6-8-4-13l12-28c2-5 0-12-6-14-1 0-3-1-4-1z m6-174c-2 0-4 0-5 1-3 2-5 5-6 8 0 2-12 59-83 92-9 4-20 8-30 11-2 1-23 6-33 22-4 8-5 17-3 27 3 12 11 17 16 20 14 7 30 1 34-1 4-1 22-6 37-13 6-3 8-9 5-15-2-5-9-7-14-5-15 8-34 13-34 13-1 0-1 0-2 1-2 1-11 3-17 1-1-1-3-2-4-7-1-4-1-7 1-10 4-7 16-11 19-12 12-4 24-8 34-13 61-28 84-73 92-95l87 40-3 58-38 91c-1 3-3 5-6 6-1 0-3 1-6 0-4-2-6-8-3-13l9-22c2-5-1-11-6-14-6-2-12 1-14 6l-9 22c-7 16 0 34 15 40 7 3 15 3 22 0 8-3 14-9 18-17l38-92c1-1 1-3 1-4l4-67c0-5-2-9-6-11l-106-47c-1-1-3-1-4-1z m-34 371l-159 0c-6 0-11 5-11 11 0 6 5 10 11 10l159 0c6 0 11-4 11-10 0-6-5-11-11-11z m0-54l-159 0c-6 0-11 5-11 11 0 5 5 10 11 10l159 0c6 0 11-5 11-10 0-6-5-11-11-11z"/>
<glyph unicode="&#124;" d="M422 156c0 0-1 0-2 0l-318 0c0 0-1 0-1 0l-3 0c-1 0-1 0-2 1-54 3-96 47-96 101 0 53 40 97 92 102 1 59 49 106 108 106 35 0 67-16 87-43 12 4 24 7 37 7 53 0 97-41 101-93 48-2 87-42 87-91 0-48-38-87-86-90-1 0-1 0-2 0z m-322 22l1 0c0 0 1 0 1 0l1 0 318 0c0 0 1 0 1 0 0 0 1 0 1 0l0 0c1 0 1 0 1 0 37 1 67 31 67 68 0 38-31 69-69 69-2 0-5 0-7 0-3 0-6 1-8 3-3 2-4 5-4 8l0 2c0 0 0 1 0 1 0 44-35 79-79 79-12 0-24-3-36-8-5-3-11-1-14 3-16 26-43 41-74 41-48 0-87-39-87-87 0-2 0-4 0-5l0-1c0-3-1-6-3-8-2-3-5-4-8-4 0 0 0 0 0 0-44 0-81-36-81-81 0-43 34-78 78-80 0 0 0 0 1 0z m157-132c-6 0-10 5-10 11l0 235c0 6 4 11 10 11 6 0 11-5 11-11l0-235c0-6-5-11-11-11z m36 209c-3 0-6 1-8 4l-28 35-30-35c-4-5-10-5-15-1-4 3-5 10-1 15l38 45c2 2 6 3 8 4 4 0 7-2 9-4l35-46c4-4 3-11-1-15-2-1-5-2-7-2z"/>
<glyph unicode="&#125;" d="M191 235c-2 0-3 1-4 1-4 2-7 6-7 10l0 68-169 0c-6 0-11 4-11 10l0 100c0 6 5 11 11 11l169 0 0 67c0 5 3 9 7 10 3 2 8 1 11-2l128-128c5-4 5-11 0-15l-128-129c-2-2-5-3-7-3z m-170 100l170 0c5 0 10-5 10-11l0-52 103 102-103 103 0-53c0-6-5-10-10-10l-170 0z m300-336c-2 0-5 1-7 3l-128 128c-2 2-3 5-3 8 0 3 1 5 3 7l128 129c3 3 8 3 12 2 4-2 6-6 6-10l0-68 169 0c6 0 11-4 11-10l0-100c0-6-5-11-11-11l-169 0 0-67c0-5-2-9-6-10-2-1-3-1-5-1z m-113 139l103-103 0 53c0 6 5 10 10 10l170 0 0 79-170 0c-5 0-10 5-10 11l0 52z"/>
<glyph unicode="&#126;" d="M405 0l-298 0c-40 0-72 32-72 72l0 368c0 40 32 72 72 72l298 0c40 0 72-32 72-72l0-368c0-40-32-72-72-72z m-298 491c-28 0-51-23-51-51l0-368c0-28 23-51 51-51l298 0c28 0 51 23 51 51l0 368c0 28-23 51-51 51z m149-439c-75 0-137 61-137 137 0 75 62 136 137 136 75 0 137-61 137-136 0-76-62-137-137-137z m0 252c-64 0-115-52-115-115 0-64 51-116 115-116 64 0 115 52 115 116 0 63-51 115-115 115z m-47-196c-2 0-4 0-6 1-3 2-5 5-5 9l0 141c0 4 2 8 5 9 4 2 8 2 11 0l117-70c3-2 5-6 5-9 0-4-2-8-5-9l-117-71c-2-1-3-1-5-1z m10 132l0-103 86 52z m-81 127c-6 0-11 5-11 11l0 81c0 6 5 10 11 10 6 0 11-4 11-10l0-81c0-6-5-11-11-11z m47 0c-6 0-10 5-10 11l0 56c0 6 4 11 10 11 6 0 11-5 11-11l0-56c0-6-5-11-11-11z m47 0c-5 0-10 5-10 11l0 40c0 6 5 11 10 11 6 0 11-5 11-11l0-40c0-6-5-11-11-11z m48 0c-6 0-11 5-11 11l0 81c0 6 5 10 11 10 5 0 10-4 10-10l0-81c0-6-5-11-10-11z m47 0c-6 0-11 5-11 11l0 62c0 5 5 10 11 10 6 0 10-5 10-10l0-62c0-6-4-11-10-11z m47 0c-6 0-11 5-11 11l0 20c0 6 5 11 11 11 6 0 11-5 11-11l0-20c0-6-5-11-11-11z m81-23l-398 0c-6 0-11 5-11 11 0 6 5 11 11 11l398 0c6 0 11-5 11-11 0-6-5-11-11-11z"/>
<glyph unicode="&#92;" d="M102 0c-3 0-6 1-8 4-4 4-4 11 1 15 122 105 109 301 109 303-1 6 4 11 10 11 6 1 11-4 11-10 1-8 14-208-116-320-2-2-5-3-7-3z m308 0c-2 0-5 1-7 3-132 112-119 312-118 320 0 6 5 11 11 10 6 0 10-5 10-11 0-2-13-198 111-303 5-4 5-11 1-15-2-3-5-4-8-4z m-62 60l-189 0c-6 0-11 5-11 11 0 6 5 11 11 11l189 0c6 0 11-5 11-11 0-6-5-11-11-11z m-13 30c-3 0-5 1-7 3l-126 114 75 102c4 5 11 6 15 3 5-4 6-11 3-15l-65-87 112-102c4-3 5-10 1-15-2-2-5-3-8-3z m-157 0c-3 0-6 1-8 3-4 5-4 12 1 15l111 102-64 87c-3 4-2 11 3 15 4 3 11 2 14-3l76-102-126-114c-2-2-5-3-7-3z m78 251c-32 0-59 27-59 59 0 33 27 59 59 59 32 0 59-26 59-59 0-32-27-59-59-59z m0 97c-21 0-38-17-38-38 0-20 17-37 38-37 21 0 38 17 38 37 0 21-17 38-38 38z m70-118c-3 0-6 1-8 3-4 4-4 11 0 15 17 17 26 39 26 62 0 24-9 46-26 63-4 4-4 11 0 15 4 4 11 4 15 0 21-21 32-48 32-78 0-29-11-56-32-77-2-2-4-3-7-3z m-140 0c-3 0-5 1-7 3-21 21-32 48-32 77 0 30 11 57 32 78 4 4 10 4 15 0 4-4 4-11 0-15-17-17-26-39-26-63 0-23 9-45 26-62 4-4 4-11 0-15-2-2-5-3-8-3z m171-31c-3 0-5 1-7 3-5 4-5 11 0 15 51 51 51 135 0 187-5 4-5 11 0 15 4 4 10 4 15 0 59-60 60-157 0-217-2-2-5-3-8-3z m-202 0c-3 0-6 1-8 3-59 60-59 157 0 217 5 4 11 4 15 0 5-4 5-11 0-15-51-52-51-136 0-187 5-4 5-11 0-15-2-2-4-3-7-3z"/>
<glyph unicode="&#57344;" d="M398 24l-348 0c-28 0-50 22-50 50l0 115c0 27 22 49 50 49l348 0c27 0 50-22 50-49l0-115c0-14-5-26-15-35-9-10-22-15-35-15z m-348 193c-16 0-29-13-29-28l0-115c0-16 13-29 29-29l348 0c16 0 28 13 28 29l0 115c0 15-12 28-28 28z m416-77l-29 0c-6 0-11 5-11 11 0 6 5 10 11 10l19 0 0 246c0 6 4 11 10 11 6 0 11-5 11-11l0-256c0-6-5-11-11-11z m0 257c-25 0-45 20-45 45 0 26 20 46 45 46 26 0 46-20 46-46 0-25-20-45-46-45z m0 70c-13 0-24-11-24-25 0-13 11-24 24-24 14 0 25 11 25 24 0 14-11 25-25 25z m-367-370c-6 0-11 4-11 10l0 44-26 0c-6 0-11 5-11 11 0 6 5 10 11 10l37 0c5 0 10-4 10-10l0-55c0-6-5-10-10-10z m100 27l-36 0c-6 0-11 5-11 11 0 5 5 10 11 10l36 0c6 0 10-5 10-10 0-6-4-11-10-11z m83 0l-36 0c-6 0-10 5-10 11 0 5 4 10 10 10l36 0c6 0 11-5 11-10 0-6-5-11-11-11z m83 0l-35 0c-6 0-11 5-11 11 0 5 5 10 11 10l35 0c6 0 11-5 11-10 0-6-5-11-11-11z"/>
<glyph unicode="&#57345;" d="M420 73c-1 0-2 0-3 1l-329 116c-4 2-7 6-7 10l0 112c0 4 3 8 7 10l329 116c3 1 7 1 10-1 2-2 4-5 4-9l0-344c0-4-2-7-4-9-2-1-4-2-7-2z m-318 135l308-109 0 314-308-109z m399-180l-81 0c-6 0-10 5-10 10l0 436c0 5 4 10 10 10l81 0c6 0 11-5 11-10l0-436c0-5-5-10-11-10z m-70 21l60 0 0 414-60 0z m-339 99l-81 0c-6 0-11 5-11 11l0 194c0 6 5 11 11 11l81 0c5 0 10-5 10-11l0-194c0-6-5-11-10-11z m-71 22l60 0 0 172-60 0z m235-134c-10 0-21 2-31 5-54 17-84 74-67 128 2 6 8 9 14 7 5-1 8-7 7-13-14-43 10-88 53-102 42-13 88 11 101 53 2 6 8 9 14 7 5-1 9-7 7-13-14-44-54-72-98-72z"/>
<glyph unicode="&#57346;" d="M77 253c-21 0-41 9-53 26l-10 12c-23 30-17 72 12 94 38 27 61 43 71 47 45 24 101 38 159 38 58 0 114-14 159-38 10-4 33-19 71-47 14-11 23-27 25-44 3-18-2-35-13-50l-10-12c-12-17-32-26-53-26-15 0-29 4-40 13l-47 36c-22 18-31 47-22 74-45 11-95 11-140 0 9-27 0-56-22-74l-47-36c-11-9-25-13-40-13z m179 195c-55 0-108-12-150-35-1 0-2-1-2-1-6-2-38-24-65-44-20-15-24-44-8-64l10-12c8-12 21-18 36-18 10 0 19 3 27 9l47 36c18 14 23 39 11 59-1 2-2 6 0 9 1 3 3 5 6 6 55 17 121 17 175 0 4-1 6-3 7-6 1-3 1-7 0-10-12-19-7-44 11-58l47-36c8-6 17-9 27-9 15 0 28 6 36 18l10 12c8 10 11 22 9 34-1 12-7 23-17 30-27 20-59 42-65 44-1 0-1 1-2 1-42 23-95 35-150 35z m-75-248l-27 0c-6 0-10 5-10 10 0 6 4 11 10 11l27 0c6 0 11-5 11-11 0-5-5-10-11-10z m84 0l-27 0c-6 0-11 5-11 10 0 6 5 11 11 11l27 0c6 0 11-5 11-11 0-5-5-10-11-10z m84 0l-27 0c-6 0-11 5-11 10 0 6 5 11 11 11l27 0c5 0 10-5 10-11 0-5-5-10-10-10z m-168-79l-27 0c-6 0-10 5-10 11 0 6 4 10 10 10l27 0c6 0 11-4 11-10 0-6-5-11-11-11z m84 0l-27 0c-6 0-11 5-11 11 0 6 5 10 11 10l27 0c6 0 11-4 11-10 0-6-5-11-11-11z m84 0l-27 0c-6 0-11 5-11 11 0 6 5 10 11 10l27 0c5 0 10-4 10-10 0-6-5-11-10-11z m-168-79l-27 0c-6 0-10 5-10 11 0 6 4 11 10 11l27 0c6 0 11-5 11-11 0-6-5-11-11-11z m84 0l-27 0c-6 0-11 5-11 11 0 6 5 11 11 11l27 0c6 0 11-5 11-11 0-6-5-11-11-11z m84 0l-27 0c-6 0-11 5-11 11 0 6 5 11 11 11l27 0c5 0 10-5 10-11 0-6-5-11-10-11z"/>
<glyph unicode="&#57347;" d="M449 0l-386 0c-6 0-11 5-11 11l0 490c0 6 5 11 11 11l386 0c6 0 11-5 11-11l0-490c0-6-5-11-11-11z m-376 21l366 0 0 470-366 0z m183 38c-78 0-142 64-142 142 0 28 9 55 24 78l-13 0c-6 0-11 5-11 11l0 152c0 6 5 11 11 11l262 0c6 0 11-5 11-11l0-152c0-6-5-11-11-11l-13 0c15-23 24-50 24-78 0-78-64-142-142-142z m-120 242l24 0c4 0 8-3 10-7 2-4 1-8-2-11-21-23-32-52-32-82 0-66 54-120 120-120 66 0 120 54 120 120 0 30-11 59-32 82-3 3-4 7-2 11 2 4 6 7 10 7l24 0 0 130-240 0z m191 84l-143 0c-6 0-11 4-11 10 0 6 5 11 11 11l143 0c6 0 11-5 11-11 0-6-5-10-11-10z m0-52l-143 0c-6 0-11 5-11 10 0 6 5 11 11 11l143 0c6 0 11-5 11-11 0-5-5-10-11-10z m-69-177c-25 0-45 21-45 46 0 24 20 45 45 45 25 0 45-21 45-45 0-25-20-46-45-46z m0 69c-13 0-24-10-24-23 0-14 11-24 24-24 13 0 24 10 24 24 0 13-11 23-24 23z"/>
<glyph unicode="&#57348;" d="M256 0c-141 0-256 115-256 256 0 141 115 256 256 256 141 0 256-115 256-256 0-141-115-256-256-256z m0 491c-129 0-235-106-235-235 0-129 106-235 235-235 129 0 235 106 235 235 0 129-106 235-235 235z m-13-331c-5 0-10 4-10 10 0 1 0 2-1 3-1 12-6 50 34 98 42 52 50 72 50 93 0 32-23 45-37 50-30 11-67 2-85-22-4-4-11-5-15-1-5 4-6 10-2 15 24 30 70 42 109 28 32-11 51-37 51-70 0-30-13-56-55-106-34-41-30-71-28-83 0-2 0-4 0-5 0-6-5-10-11-10z m0-88c-5 0-10 5-10 11l0 25c0 6 5 11 10 11 6 0 11-5 11-11l0-25c0-6-5-11-11-11z"/>
<glyph unicode="&#57349;" d="M422 150c0 0-1 0-2 0l-318 0c0 0-1 0-1 0l-3 0c-1 0-1 0-2 0-54 3-96 48-96 102 0 53 40 96 92 102 1 58 49 105 108 105 35 0 67-16 87-43 12 5 24 7 37 7 53 0 97-41 101-93 48-1 87-41 87-90 0-48-38-88-86-90-1 0-1 0-2 0z m-322 21l1 0c0 0 1 0 1 0l1 0 318 0c0 0 1 0 1 0 0 0 1 0 1 0l0 0c1 0 1 0 1 0 37 2 67 32 67 69 0 38-31 69-69 69-2 0-5 0-7-1-3 0-6 1-8 3-3 3-4 6-4 9l0 1c0 1 1 1 1 2 0 43-36 79-80 79-12 0-24-3-36-9-5-2-11-1-14 4-16 26-43 41-74 41-48 0-87-39-87-88 0-1 0-3 0-5l0-1c0-3-1-6-3-8-2-2-5-3-8-3 0 0 0 0 0 0-44 0-81-36-81-81 0-43 34-79 78-81 0 0 0 0 1 0z m155-108c-6 0-11 5-11 11l0 224c0 6 5 11 11 11 6 0 10-5 10-11l0-224c0-6-4-11-10-11z m0-10c0 0 0 0 0 0-4 0-7 1-9 4l-35 45c-4 5-3 12 1 15 5 4 12 3 15-2l28-35 30 36c4 4 10 5 15 1 4-4 5-11 1-15l-38-45c-2-3-5-4-8-4z"/>
<glyph unicode="&#57350;" d="M187 313c-6 0-11 5-11 10l0 81c0 6 5 11 11 11 6 0 10-5 10-11l0-81c0-5-4-10-10-10z m-1-13c0 0-1 0-1 0-3 0-6 1-8 4l-33 41c-3 5-2 12 2 15 5 4 12 3 15-2l25-31 27 32c3 4 10 5 15 1 4-4 5-11 1-15l-35-42c-2-2-5-3-8-3z m126-2c-6 0-11 5-11 11l0 80c0 6 5 11 11 11 6 0 10-5 10-11l0-80c0-6-4-11-10-11z m33 55c-3 0-6 2-8 5l-25 31-26-32c-4-4-11-5-15-1-5 4-6 11-2 15l35 42c2 2 6 3 9 3 3 0 6-1 8-4l33-41c3-5 3-12-2-15-2-2-4-3-7-3z m42-316l-276 0c-20 0-37 15-37 34l0 180c0 19 17 35 37 35l276 0c20 0 37-16 37-35l0-180c0-19-17-34-37-34z m-276 227c-8 0-15-6-15-13l0-180c0-7 7-13 15-13l276 0c9 0 15 6 15 13l0 180c0 7-6 13-15 13z m223-264l-170 0c-6 0-11 5-11 11 0 6 5 10 11 10l170 0c6 0 11-4 11-10 0-6-5-11-11-11z m76 343c-1 0-1 0-2 0-5 0-10 5-10 11 0 6 6 10 11 10 1 0 1 0 1 0 0 0 1 0 1 0l3 0c0 1 1 1 2 1 13 2 23 14 23 27 0 15-13 27-29 27-3 0-6 0-9-1-6-2-11 0-14 5-7 17-25 28-45 28-5 0-10-1-16-3-5-1-10 1-13 5-7 12-19 19-33 19-6 0-11-1-17-4-5-2-10-1-13 4-8 12-21 19-36 19-23 0-41-18-41-40 0-1 0-2 0-2 0-3-1-6-3-9-2-2-5-3-8-3-3 0-7-1-11-2-3-1-7 0-10 2-7 5-16 8-26 8-23 0-42-18-42-40 0-17 11-32 28-38 5-2 8-8 6-14-2-5-8-8-13-6-26 9-42 32-42 58 0 34 28 62 63 62 13 0 24-4 35-10 0 0 1 0 2 0 3 31 30 55 62 55 19 0 36-8 48-21 6 2 12 3 18 3 19 0 36-9 47-23 30 7 60-7 76-31 2 0 5 0 7 0 28 0 50-21 50-48 0-23-16-43-39-48-2-1-4-1-7-1l-3 0c-1 0-1 0-1 0z"/>
<glyph unicode="&#57351;" d="M256 0c-141 0-256 115-256 256 0 141 115 256 256 256 141 0 256-115 256-256 0-141-115-256-256-256z m0 491c-129 0-235-106-235-235 0-129 106-235 235-235 129 0 235 106 235 235 0 129-106 235-235 235z m0-329c-6 0-11 4-11 10l0 227c0 6 5 11 11 11 6 0 11-5 11-11l0-227c0-6-5-10-11-10z m0-60c-6 0-11 5-11 11l0 17c0 6 5 11 11 11 6 0 11-5 11-11l0-17c0-6-5-11-11-11z"/>
<glyph unicode="&#57352;" d="M58 0c-6 0-43 2-55 58-3 12-3 52-3 57l0 386c0 6 5 11 11 11l407 0c6 0 11-5 11-11l0-375c0-6-5-11-11-11-6 0-11 5-11 11l0 365-386 0 0-376c0-16 1-45 3-53 9-42 34-41 34-41l402 0c6 0 10-4 10-10 0-6-4-11-10-11l-401 0c0 0-1 0-1 0z m402 0c-29 0-53 28-53 62l0 251c0 6 5 10 11 10 6 0 11-4 11-10l0-251c0-22 14-41 31-41 16 0 31 19 31 41l0 302c0 6 4 11 10 11 6 0 11-5 11-11l0-302c0-34-23-62-52-62z m-393 365l0 78 12 0 27-39c6-9 11-18 15-25l0 0c-1 10-1 19-1 32l0 32 10 0 0-78-11 0-26 40c-6 9-12 17-16 26l-1 0c1-10 1-19 1-32l0-34z m126 37l-33 0 0-28 37 0 0-9-48 0 0 78 46 0 0-8-35 0 0-25 33 0z m33-37l-21 78 11 0 10-39c3-10 5-20 7-27l0 0c1 8 4 17 7 27l11 39 11 0 11-39c2-10 4-19 6-27l0 0c2 9 4 17 7 27l11 39 11 0-24-78-11 0-11 41c-3 10-4 17-6 25l0 0c-1-7-3-15-6-25l-12-41z m91 13c5-3 12-6 20-6 11 0 17 6 17 14 0 7-4 11-16 15-13 5-22 11-22 22 0 12 11 21 27 21 9 0 15-1 19-3l-3-9c-3 2-8 4-16 4-12 0-16-6-16-12 0-7 5-10 17-15 14-5 21-11 21-22 0-12-9-23-29-23-8 0-17 2-22 5z m-134-93l-123 0c-6 0-10 5-10 11 0 6 4 11 10 11l123 0c6 0 11-5 11-11 0-6-5-11-11-11z m181 0l-123 0c-6 0-11 5-11 11 0 6 5 11 11 11l123 0c6 0 11-5 11-11 0-6-5-11-11-11z m-181-72l-123 0c-6 0-10 5-10 11 0 5 4 10 10 10l123 0c6 0 11-5 11-10 0-6-5-11-11-11z m181 0l-123 0c-6 0-11 5-11 11 0 5 5 10 11 10l123 0c6 0 11-5 11-10 0-6-5-11-11-11z m-181-72l-123 0c-6 0-10 4-10 10 0 6 4 11 10 11l123 0c6 0 11-5 11-11 0-6-5-10-11-10z m181 0l-123 0c-6 0-11 4-11 10 0 6 5 11 11 11l123 0c6 0 11-5 11-11 0-6-5-10-11-10z m-181-73l-123 0c-6 0-10 5-10 11 0 6 4 11 10 11l123 0c6 0 11-5 11-11 0-6-5-11-11-11z m181 0l-123 0c-6 0-11 5-11 11 0 6 5 11 11 11l123 0c6 0 11-5 11-11 0-6-5-11-11-11z"/>
<glyph unicode="&#57353;" d="M501 0l-490 0c-6 0-11 5-11 11l0 148c0 6 5 11 11 11 6 0 10-5 10-11l0-138 470 0 0 138c0 6 4 11 10 11 6 0 11-5 11-11l0-148c0-6-5-11-11-11z m-245 87c-3 0-6 1-8 3l-170 171c-3 4-4 8-2 12 1 4 5 7 10 7l77 0 0 221c0 6 5 11 11 11l164 0c6 0 11-5 11-11l0-221 77 0c5 0 9-3 10-7 2-4 1-8-2-12l-170-171c-2-2-5-3-8-3z m-145 171l145-145 145 145-63 0c-6 0-11 5-11 11l0 222-142 0 0-222c0-6-5-11-11-11z"/>
<glyph unicode="&#57354;" d="M397 0l-282 0c-31 0-56 25-56 56l0 400c0 15 6 29 16 40 11 10 25 16 40 16l282 0c31 0 56-25 56-56l0-400c0-31-25-56-56-56z m-282 491c-10 0-18-4-25-10-6-7-10-16-10-25l0-400c0-19 16-35 35-35l282 0c19 0 35 16 35 35l0 400c0 19-16 35-35 35z m281-396l-280 0c-6 0-10 5-10 11l0 343c0 6 4 11 10 11l280 0c6 0 10-5 10-11l0-343c0-6-4-11-10-11z m-269 21l258 0 0 322-258 0z m150-69l-42 0c-5 0-10 5-10 11 0 5 5 10 10 10l42 0c5 0 10-5 10-10 0-6-5-11-10-11z"/>
<glyph unicode="&#57355;" d="M346 35l-289 0 0 11 0 11 289 0c19 0 35 16 35 36l0 157c0 20-16 36-35 36l-289 0c-20 0-36-16-36-36l0-157c0-10 4-19 11-26 7-7 15-10 25-10l0-22c-15 0-30 6-40 17-11 11-17 25-17 41l0 157c0 32 26 57 57 57l289 0c31 0 57-25 57-57l0-157c0-32-26-58-57-58z m142 28c-5 0-13 2-22 10l-77 35c-6 3-8 9-6 14 3 6 9 8 15 6l78-37c1 0 1-1 2-1 7-6 10-6 11-6 0 1 2 3 2 8l0 159c0 5-2 7-2 7-1 0-4 0-11-5-1-1-1-1-2-2l-78-36c-6-2-12 0-15 5-2 6 0 12 6 14l77 36c15 12 27 10 32 7 5-2 14-9 14-26l0-159c0-18-9-24-14-27-2-1-5-2-10-2z m-387 265c-51 0-92 41-92 92 0 51 41 92 92 92 50 0 91-41 91-92 0-51-41-92-91-92z m0 163c-39 0-70-32-70-71 0-39 31-71 70-71 39 0 70 32 70 71 0 39-31 71-70 71z m210-163c-50 0-92 41-92 92 0 51 42 92 92 92 50 0 92-41 92-92 0-51-42-92-92-92z m0 163c-39 0-70-32-70-71 0-39 31-71 70-71 39 0 70 32 70 71 0 39-31 71-70 71z m-234-389c-6 0-11 5-11 11l0 114c0 6 5 10 11 10l226 0c6 0 10-4 10-10 0-6-4-11-10-11l-215 0 0-103c0-6-5-11-11-11z m124-102c-6 0-10 5-10 11l0 29c0 6 4 10 10 10 6 0 11-4 11-10l0-29c0-6-5-11-11-11z"/>
<glyph unicode="&#57356;" d="M501 0l-490 0c-6 0-11 5-11 11l0 148c0 6 5 11 11 11 6 0 10-5 10-11l0-138 470 0 0 138c0 6 4 11 10 11 6 0 11-5 11-11l0-148c0-6-5-11-11-11z m-163 87l-164 0c-6 0-11 5-11 11l0 221-77 0c-5 0-9 3-10 7-2 4-1 8 2 12l170 171c4 4 12 4 16 0l169-170c3-2 4-5 4-9 0-6-4-11-10-11 0 0 0 0-1 0l-77 0 0-221c0-6-5-11-11-11z m-153 21l142 0 0 222c0 6 5 11 11 11l63 0-145 145-145-145 63 0c6 0 11-5 11-11z"/>
<glyph unicode="&#57357;" d="M501 58l-490 0c-6 0-11 5-11 11l0 153c0 1 0 2 1 3l36 111c1 5 5 8 10 8l370 0c4 0 8-3 10-6l84-161c1-1 1-3 1-5l0-103c0-6-5-11-11-11z m-480 22l470 0 0 90-80 152-357 0-33-102z m429 90c0 0 0 0 0 0l-119 0c-6 0-11 4-11 10l0 114c0 6 5 11 11 11l55 0c4 0 8-2 10-5l62-113c2-2 3-4 3-7 0-6-5-10-11-10z m-109 21l91 0-52 93-39 0 0-93z m71-191c-34 0-61 28-61 63 0 6 5 11 10 11 6 0 11-5 11-11 0-23 18-42 40-42 22 0 40 19 40 42 0 6 5 11 11 11 6 0 10-5 10-11 0-35-27-63-61-63z m-261 0c-34 0-62 28-62 63 0 6 5 11 11 11 6 0 11-5 11-11 0-23 18-42 40-42 22 0 40 19 40 42 0 6 4 11 10 11 6 0 11-5 11-11 0-35-28-63-61-63z m-100 101c-3 0-6 1-8 3-3 3-4 8-1 13 3 5 83 137 227 158 3 0 6-1 8-3 2-2 4-5 4-8l0-105c0-4-2-7-5-9-4-2-8-2-11 0 0 0-14 7-42 7-33 0-88-10-167-55-1-1-3-1-5-1z m208 150c-81-16-140-71-172-109 61 29 107 36 136 36 16 0 28-2 36-4z m-4 94c-55 0-100 44-100 98 0 24 8 47 25 65 3 4 9 5 14 2l145-101c4-3 6-9 3-14-18-31-51-50-87-50z m-65 142c-9-13-14-28-14-44 0-42 35-77 79-77 25 0 48 12 63 32z m68-45c-2 0-5 0-7 2-4 4-5 11-1 15l41 49c4 5 11 5 15 2 5-4 5-11 2-16l-42-49c-2-2-5-3-8-3z m-56-118c-6 0-10 5-10 11l0 38c0 6 4 11 10 11 6 0 11-5 11-11l0-38c0-6-5-11-11-11z"/>
<glyph unicode="&#57358;" d="M446 29l-380 0c-36 0-66 30-66 66l0 260c0 37 30 67 66 67l380 0c36 0 66-30 66-67l0-260c0-36-30-66-66-66z m-380 371c-24 0-45-20-45-45l0-260c0-24 21-45 45-45l380 0c24 0 45 21 45 45l0 260c0 25-21 45-45 45z m271 5c-6 0-11 5-11 11l0 38c0 4-3 8-7 8l-126 0c-4 0-7-4-7-8l0-38c0-6-5-11-11-11-6 0-11 5-11 11l0 38c0 16 13 29 29 29l126 0c16 0 29-13 29-29l0-38c0-6-5-11-11-11z m69-99l-300 0c-6 0-10 5-10 11 0 6 4 10 10 10l300 0c6 0 10-4 10-10 0-6-4-11-10-11z m0-91l-300 0c-6 0-10 4-10 10 0 6 4 11 10 11l300 0c6 0 10-5 10-11 0-6-4-10-10-10z m0-92l-300 0c-6 0-10 5-10 11 0 6 4 11 10 11l300 0c6 0 10-5 10-11 0-6-4-11-10-11z"/>
<glyph unicode="&#57359;" d="M385 34c-64 0-116 53-116 117 0 64 52 116 116 116 64 0 116-52 116-116 0-64-52-117-116-117z m0 211c-53 0-95-42-95-94 0-53 42-95 95-95 52 0 94 42 94 95 0 52-42 94-94 94z m40-105l-81 0c-6 0-11 5-11 11 0 5 5 10 11 10l81 0c6 0 11-5 11-10 0-6-5-11-11-11z m-239 164c-57 0-104 47-104 104 0 57 47 104 104 104 57 0 104-47 104-104 0-57-47-104-104-104z m0 187c-46 0-83-37-83-83 0-46 37-83 83-83 46 0 83 37 83 83 0 46-37 83-83 83z m164-491l-328 0c-6 0-10 5-11 10 0 2 0 3 0 4l0 105c0 89 73 161 162 161l26 0c44 0 86-18 117-50 4-4 4-11-1-15-4-4-11-4-15 1-27 27-62 43-101 43l-26 0c-78 0-140-63-140-140l0-98 306 0 0 30c0 6 5 11 11 11 6 0 11-5 11-11l0-37c0-1 0-2 0-3-1-5-5-11-11-11z"/>
<glyph unicode="&#57360;" d="M425 245l-81 0c-6 0-11 5-11 11 0 6 5 11 11 11l81 0c6 0 11-5 11-11 0-6-5-11-11-11z m-40-40c-6 0-11 4-11 10l0 82c0 6 5 10 11 10 6 0 10-4 10-10l0-82c0-6-4-10-10-10z m0-65c-64 0-116 52-116 116 0 64 52 116 116 116 64 0 116-52 116-116 0-64-52-116-116-116z m0 211c-53 0-95-43-95-95 0-52 42-95 95-95 52 0 94 43 94 95 0 52-42 95-94 95z m-199-47c-57 0-104 47-104 104 0 57 47 104 104 104 57 0 104-47 104-104 0-57-47-104-104-104z m0 187c-46 0-83-37-83-83 0-46 37-83 83-83 46 0 83 37 83 83 0 46-37 83-83 83z m164-491l-328 0c-6 0-10 5-11 10 0 2 0 3 0 4l0 105c0 89 73 161 162 161l26 0c44 0 86-18 117-50 4-4 4-11-1-15-4-4-11-4-15 1-27 27-63 43-101 43l-26 0c-78 0-140-63-140-140l0-98 306 0 0 30c0 6 5 11 11 11 6 0 11-5 11-11l0-37c0-1 0-2 0-3-1-5-5-11-11-11z"/>
<glyph unicode="&#57361;" d="M438 0l-318 0c-41 0-74 29-74 65l0 382c0 36 33 65 74 65l318 0c41 0 74-29 74-65l0-382c0-36-33-65-74-65z m-318 491c-29 0-52-20-52-44l0-382c0-24 23-44 52-44l318 0c29 0 53 20 53 44l0 382c0 24-24 44-53 44z m-77-112l-32 0c-6 0-11 5-11 11 0 6 5 11 11 11l32 0c6 0 11-5 11-11 0-6-5-11-11-11z m78 0l-32 0c-6 0-11 5-11 11 0 6 5 11 11 11l32 0c6 0 11-5 11-11 0-6-5-11-11-11z m-78-67l-32 0c-6 0-11 5-11 11 0 6 5 11 11 11l32 0c6 0 11-5 11-11 0-6-5-11-11-11z m78 0l-32 0c-6 0-11 5-11 11 0 6 5 11 11 11l32 0c6 0 11-5 11-11 0-6-5-11-11-11z m-78-67l-32 0c-6 0-11 5-11 11 0 6 5 11 11 11l32 0c6 0 11-5 11-11 0-6-5-11-11-11z m78 0l-32 0c-6 0-11 5-11 11 0 6 5 11 11 11l32 0c6 0 11-5 11-11 0-6-5-11-11-11z m-78-67l-32 0c-6 0-11 5-11 11 0 6 5 11 11 11l32 0c6 0 11-5 11-11 0-6-5-11-11-11z m78 0l-32 0c-6 0-11 5-11 11 0 6 5 11 11 11l32 0c6 0 11-5 11-11 0-6-5-11-11-11z m-78-67l-32 0c-6 0-11 5-11 11 0 6 5 11 11 11l32 0c6 0 11-5 11-11 0-6-5-11-11-11z m78 0l-32 0c-6 0-11 5-11 11 0 6 5 11 11 11l32 0c6 0 11-5 11-11 0-6-5-11-11-11z m108-44c-12 0-22 3-30 8-1 1-3 3-4 4l-1 0c-8 4-16 10-22 14-2 1-3 2-4 3-8 5-13 13-15 23-3 13 0 28 8 40l24 38c10 15 26 24 42 24 7 0 13-2 19-5 19-13 18-42 17-65l0-2-1-3c0 0 0 0 0 0 12-8 53 22 88 75 32 48 44 93 37 109 0 2-1 3-3 4 0 0 0-1 0-1l-2-2-2-1c-14-7-32-15-48-15-7 0-13 1-18 5-19 12-22 40-7 63l24 37c10 15 26 25 42 25 7 0 14-2 19-6 1 0 3-1 4-2 7-4 16-10 24-16l1 0c1-1 3-2 5-3 45-30 32-139-27-229-53-80-125-122-170-122z m-12 23c3-1 7-2 12-2 38 0 104 40 152 113 55 83 60 168 38 194l0 0-10 7c-7 6-18 13-24 17-2 1-3 2-4 2-9 6-24 0-32-12l-24-38c-8-12-8-28 1-33 1-2 4-2 6-2 10 0 25 6 36 12 7 8 12 8 14 8l2 0c11-1 19-8 23-17 13-30-10-87-39-130-28-43-71-85-102-85l0 0c-11 0-19 4-25 13-3 5-3 11 1 17 0 16 1 38-8 44-8 5-23-1-31-13l-24-37c-5-8-7-17-6-24 1-3 3-8 6-10 2-1 3-2 5-3 6-4 15-11 23-14l10-6z"/>
<glyph unicode="&#57362;" d="M412 54c-56 0-101 44-101 98 0 54 45 98 101 98 55 0 100-44 100-98 0-54-45-98-100-98z m0 175c-44 0-79-35-79-77 0-42 35-77 79-77 43 0 79 35 79 77 0 42-36 77-79 77z m34-88l-69 0c-6 0-11 5-11 11 0 6 5 11 11 11l69 0c6 0 11-5 11-11 0-6-5-11-11-11z m-40-141l-395 0c-6 0-11 5-11 11l0 490c0 6 5 11 11 11l197 0c3 0 5-1 7-3l198-167c2-2 4-5 4-8l0-93c0-6-5-10-11-10-6 0-11 4-11 10l0 88-191 162-183 0 0-470 374 0 0 41c0 6 5 11 11 11 6 0 11-5 11-11l0-51c0-6-5-11-11-11z m0 324l-198 0c-6 0-10 4-10 10l0 157c0 6 4 10 10 10 6 0 11-4 11-10l0-146 187 0c6 0 11-5 11-11 0-6-5-10-11-10z m-139-83l-170 0c-5 0-10 5-10 11 0 6 5 11 10 11l170 0c6 0 11-5 11-11 0-6-5-11-11-11z m0-75l-170 0c-5 0-10 4-10 10 0 6 5 11 10 11l170 0c6 0 11-5 11-11 0-6-5-10-11-10z m0-76l-170 0c-5 0-10 5-10 11 0 5 5 10 10 10l170 0c6 0 11-5 11-10 0-6-5-11-11-11z"/>
<glyph unicode="&#57363;" d="M447 34l-382 0c-36 0-65 31-65 70l0 22c0 38 29 70 65 70l382 0c36 0 65-32 65-70l0-22c0-39-29-70-65-70z m-382 141c-24 0-44-22-44-49l0-22c0-27 20-49 44-49l382 0c24 0 44 22 44 49l0 22c0 27-20 49-44 49z m-37-16c-3 0-5 1-7 3-5 4-4 11 0 15l340 332c5 4 11 4 16 0 4-4 4-11-1-15l-340-332c-2-2-5-3-8-3z m56-159c-6 0-10 5-10 11l0 34c0 6 4 10 10 10 6 0 11-4 11-10l0-34c0-6-5-11-11-11z m344 0c-6 0-11 5-11 11l0 34c0 6 5 10 11 10 6 0 10-4 10-10l0-34c0-6-4-11-10-11z m-64 196c-3 0-6 2-8 4-4 5-3 11 1 15l95 80c5 4 12 3 15-1 4-5 3-12-1-16l-95-79c-2-2-4-3-7-3z m-39 11c-5 0-10 4-10 10l0 116c0 6 5 11 10 11 6 0 11-5 11-11l0-116c0-6-5-10-11-10z m-32-11c-2 0-4 1-6 3l-93 74c-4 3-5 10-1 15 3 4 10 5 15 1l92-74c5-3 5-10 2-15-3-2-6-4-9-4z"/>
<glyph unicode="&#57364;" d="M256 0c-141 0-256 115-256 256 0 141 115 256 256 256 141 0 256-115 256-256 0-141-115-256-256-256z m0 491c-129 0-235-106-235-235 0-129 106-235 235-235 129 0 235 106 235 235 0 129-106 235-235 235z m41-316l-81 0c-4 0-8 2-10 5l-40 71c-2 3-2 7 0 10l40 70c2 4 6 6 10 6l81 0c3 0 7-2 9-6l40-70c2-3 2-7 0-10l-40-71c-2-3-6-5-9-5z m-75 21l68 0 35 60-35 59-68 0-35-59z m75 119l-275 0c-6 0-11 5-11 11 0 6 5 11 11 11l275 0c6 0 11-5 11-11 0-6-5-11-11-11z m193-140l-275 0c-6 0-11 5-11 11 0 6 5 10 11 10l275 0c6 0 11-4 11-10 0-6-5-11-11-11z m-154 70c-4 0-7 2-9 5l-131 240c-3 5-1 12 4 15 6 2 12 0 15-5l131-239c2-6 0-12-5-15-1-1-3-1-5-1z m-30-239c-3 0-7 2-9 6l-130 239c-3 5-1 12 4 14 5 3 12 1 14-4l131-239c3-5 1-12-4-15-2 0-4-1-6-1z m-9 173c-1 0-3 0-5 1-5 3-7 10-4 15l141 230c3 5 10 6 15 3 5-3 6-10 3-15l-140-229c-2-3-6-5-10-5z m-223-97c-2 0-4 1-6 2-5 3-7 9-3 14l140 230c4 5 10 7 15 4 5-3 7-10 4-15l-141-230c-2-3-6-5-9-5z"/>
</font>
</defs>
</svg>
